20 лет Большому Детскому Хору. Фильм-концерт. [1990, хоровая музыка, choral, DVD5 (custom)]

Страницы:  1
Ответить
Автор
Сообщение

Takaya Music

Стаж: 11 лет 1 месяц

Сообщений: 275

Takaya Music · 15-Июл-14 11:16 (5 лет 1 месяц назад, ред. 22-Окт-16 14:09)

20 лет Большому Детскому Хору.
Фильм-концерт.

Страна: СССР
Жанр: хоровая музыка, choral
Продолжительность: 00:49:32
Год выпуска: 1990 г.
Описание: Отчетный концерт Большого Детского Хора в Колонном зале Дома Союзов на 20-летие коллектива с участием фольклорной и танцевальной групп. Апрель 1990 года.
Треклист:
1. Смоленская дорога
2. Смешной человечек
3. Прекрасное далёко
4. Аллилуйя
5. Каравеллы
6. По буквари
7. Экологическая песня
8. Слава
Также есть танцевальные и фольклорные номера, мини-интервью с участниками концерта, выпускниками хора, и композиторами, песни которых звучат в концерте, съемки за кулисами.
Меню: нет
Разбивка на главы по трекам: есть
Качество : DVD5
Формат: DVD video
Видео кодек: MPEG2
Аудио кодек: AC3
Видео: MPEG2, PAL 720x576 (4:3), 6000 Kbps VBR, 25.000 fps
Аудио: Dolby AC3, 192 Kbps, 48.0 KHz, 2 ch
DVDinfo
Общее
Полное имя : G:\download-films\Torrent\!Upload\БДХ - 1990 - 20 лет хору\VIDEO_TS\VIDEO_TS.BUP
Формат : DVD Video
Профиль формата : Menu
Размер файла : 8,00 Кбайт
Режим общего битрейта : Переменный
Видео
Идентификатор : 224 (0xE0)
Формат : MPEG Video
Версия формата : Version 1
Вид битрейта : Переменный
Ширина : 720 пикселей
Высота : 480 пикселей
Соотношение сторон : 4:3
Частота кадров : 29,970 кадров/сек
Стандарт вещания : NTSC
Метод сжатия : С потерями
Общее
Полное имя : G:\download-films\Torrent\!Upload\БДХ - 1990 - 20 лет хору\VIDEO_TS\VIDEO_TS.IFO
Формат : DVD Video
Профиль формата : Menu
Размер файла : 8,00 Кбайт
Режим общего битрейта : Переменный
Видео
Идентификатор : 224 (0xE0)
Формат : MPEG Video
Версия формата : Version 1
Вид битрейта : Переменный
Ширина : 720 пикселей
Высота : 480 пикселей
Соотношение сторон : 4:3
Частота кадров : 29,970 кадров/сек
Стандарт вещания : NTSC
Метод сжатия : С потерями
Общее
Полное имя : G:\download-films\Torrent\!Upload\БДХ - 1990 - 20 лет хору\VIDEO_TS\VTS_01_0.BUP
Формат : DVD Video
Профиль формата : Program
Размер файла : 30,0 Кбайт
Продолжительность : 49 м.
Режим общего битрейта : Переменный
Общий поток : 83 бит/сек
Видео
Идентификатор : 224 (0xE0)
Формат : MPEG Video
Версия формата : Version 2
Продолжительность : 49 м.
Вид битрейта : Переменный
Ширина : 720 пикселей
Высота : 576 пикселей
Соотношение сторон : 4:3
Частота кадров : 25,000 кадров/сек
Стандарт вещания : PAL
Метод сжатия : С потерями
Аудио
Идентификатор : 128 (0x80)
Формат : AC-3
Формат/Информация : Audio Coding 3
Продолжительность : 49 м.
Каналы : 2 канала
Частота : 48,0 КГц
Метод сжатия : С потерями
Язык : Russian
Меню
Продолжительность : 49 м.
00:00:00.000 : Chapter 1
00:01:26.120 : Chapter 2
00:02:57.960 : Chapter 3
00:08:13.240 : Chapter 4
00:09:49.800 : Chapter 5
00:12:37.960 : Chapter 6
00:13:11.760 : Chapter 7
00:16:53.760 : Chapter 8
00:18:39.160 : Chapter 9
00:21:20.920 : Chapter 10
00:23:19.080 : Chapter 11
00:27:11.840 : Chapter 12
00:28:17.840 : Chapter 13
00:33:04.760 : Chapter 14
00:34:25.880 : Chapter 15
00:37:23.920 : Chapter 16
00:39:23.000 : Chapter 17
00:42:07.280 : Chapter 18
00:44:25.760 : Chapter 19
00:46:21.960 : Chapter 20
00:47:13.200 : Chapter 21
List (Audio) : 0
Общее
Полное имя : G:\download-films\Torrent\!Upload\БДХ - 1990 - 20 лет хору\VIDEO_TS\VTS_01_0.IFO
Формат : DVD Video
Профиль формата : Program
Размер файла : 30,0 Кбайт
Продолжительность : 49 м.
Режим общего битрейта : Переменный
Общий поток : 83 бит/сек
Видео
Идентификатор : 224 (0xE0)
Формат : MPEG Video
Версия формата : Version 2
Продолжительность : 49 м.
Вид битрейта : Переменный
Ширина : 720 пикселей
Высота : 576 пикселей
Соотношение сторон : 4:3
Частота кадров : 25,000 кадров/сек
Стандарт вещания : PAL
Метод сжатия : С потерями
Аудио
Идентификатор : 128 (0x80)
Формат : AC-3
Формат/Информация : Audio Coding 3
Продолжительность : 49 м.
Каналы : 2 канала
Частота : 48,0 КГц
Метод сжатия : С потерями
Язык : Russian
Меню
Продолжительность : 49 м.
00:00:00.000 : Chapter 1
00:01:26.120 : Chapter 2
00:02:57.960 : Chapter 3
00:08:13.240 : Chapter 4
00:09:49.800 : Chapter 5
00:12:37.960 : Chapter 6
00:13:11.760 : Chapter 7
00:16:53.760 : Chapter 8
00:18:39.160 : Chapter 9
00:21:20.920 : Chapter 10
00:23:19.080 : Chapter 11
00:27:11.840 : Chapter 12
00:28:17.840 : Chapter 13
00:33:04.760 : Chapter 14
00:34:25.880 : Chapter 15
00:37:23.920 : Chapter 16
00:39:23.000 : Chapter 17
00:42:07.280 : Chapter 18
00:44:25.760 : Chapter 19
00:46:21.960 : Chapter 20
00:47:13.200 : Chapter 21
List (Audio) : 0
Общее
Полное имя : G:\download-films\Torrent\!Upload\БДХ - 1990 - 20 лет хору\VIDEO_TS\VTS_01_1.VOB
Формат : MPEG-PS
Размер файла : 1024 Мбайт
Продолжительность : 22 м.
Общий поток : 6305 Кбит/сек
Видео
Идентификатор : 224 (0xE0)
Формат : MPEG Video
Версия формата : Version 2
Профиль формата : [email protected]
Параметр BVOP формата : Да
Параметр матрицы формата : Выборочная
Параметр GOP формата : M=3, N=15
Продолжительность : 22 м.
Битрейт : 6000 Кбит/сек
Ширина : 720 пикселей
Высота : 576 пикселей
Соотношение сторон : 4:3
Частота кадров : 25,000 кадров/сек
Стандарт вещания : PAL
Цветовое пространство : YUV
Субдискретизация насыщенности : 4:2:0
Битовая глубина : 8 бит
Тип развёртки : Чересстрочная
Порядок развёртки : Верхнее поле первое
Метод сжатия : С потерями
Бит/(Пиксели*Кадры) : 0.579
Временной код первого кадра : 00:00:00:00
Оригинал временного кода : Group of pictures header
Размер потока : 972 Мбайт (95%)
Аудио
Идентификатор : 189 (0xBD)-128 (0x80)
Формат : AC-3
Формат/Информация : Audio Coding 3
Расширение режима : CM (complete main)
Параметр Endianness формата : Big
Режим смешивания : DVD-Video
Продолжительность : 22 м.
Вид битрейта : Постоянный
Битрейт : 192 Кбит/сек
Каналы : 2 канала
Расположение каналов : Front: L R
Частота : 48,0 КГц
Битовая глубина : 16 бит
Метод сжатия : С потерями
Размер потока : 31,2 Мбайт (3%)
Меню
Общее
Полное имя : G:\download-films\Torrent\!Upload\БДХ - 1990 - 20 лет хору\VIDEO_TS\VTS_01_2.VOB
Формат : MPEG-PS
Размер файла : 1024 Мбайт
Продолжительность : 22 м.
Общий поток : 6305 Кбит/сек
Видео
Идентификатор : 224 (0xE0)
Формат : MPEG Video
Версия формата : Version 2
Профиль формата : [email protected]
Параметр BVOP формата : Да
Параметр матрицы формата : Выборочная
Параметр GOP формата : M=3, N=15
Продолжительность : 22 м.
Битрейт : 6000 Кбит/сек
Ширина : 720 пикселей
Высота : 576 пикселей
Соотношение сторон : 4:3
Частота кадров : 25,000 кадров/сек
Стандарт вещания : PAL
Цветовое пространство : YUV
Субдискретизация насыщенности : 4:2:0
Битовая глубина : 8 бит
Тип развёртки : Чересстрочная
Порядок развёртки : Верхнее поле первое
Метод сжатия : С потерями
Бит/(Пиксели*Кадры) : 0.579
Временной код первого кадра : 00:22:41:23
Оригинал временного кода : Group of pictures header
Размер потока : 972 Мбайт (95%)
Аудио
Идентификатор : 189 (0xBD)-128 (0x80)
Формат : AC-3
Формат/Информация : Audio Coding 3
Расширение режима : CM (complete main)
Параметр Endianness формата : Big
Режим смешивания : DVD-Video
Продолжительность : 22 м.
Вид битрейта : Постоянный
Битрейт : 192 Кбит/сек
Каналы : 2 канала
Расположение каналов : Front: L R
Частота : 48,0 КГц
Битовая глубина : 16 бит
Метод сжатия : С потерями
Задержка видео : -240 мс.
Размер потока : 31,2 Мбайт (3%)
Меню
Общее
Полное имя : G:\download-films\Torrent\!Upload\БДХ - 1990 - 20 лет хору\VIDEO_TS\VTS_01_3.VOB
Формат : MPEG-PS
Размер файла : 186 Мбайт
Продолжительность : 4 м. 7 с.
Общий поток : 6302 Кбит/сек
Видео
Идентификатор : 224 (0xE0)
Формат : MPEG Video
Версия формата : Version 2
Профиль формата : [email protected]
Параметр BVOP формата : Да
Параметр матрицы формата : Выборочная
Параметр GOP формата : Variable
Продолжительность : 4 м. 7 с.
Битрейт : 6000 Кбит/сек
Ширина : 720 пикселей
Высота : 576 пикселей
Соотношение сторон : 4:3
Частота кадров : 25,000 кадров/сек
Стандарт вещания : PAL
Цветовое пространство : YUV
Субдискретизация насыщенности : 4:2:0
Битовая глубина : 8 бит
Тип развёртки : Чересстрочная
Порядок развёртки : Верхнее поле первое
Метод сжатия : С потерями
Бит/(Пиксели*Кадры) : 0.579
Временной код первого кадра : 00:45:24:05
Оригинал временного кода : Group of pictures header
Размер потока : 176 Мбайт (95%)
Аудио
Идентификатор : 189 (0xBD)-128 (0x80)
Формат : AC-3
Формат/Информация : Audio Coding 3
Расширение режима : CM (complete main)
Параметр Endianness формата : Big
Режим смешивания : DVD-Video
Продолжительность : 4 м. 7 с.
Вид битрейта : Постоянный
Битрейт : 192 Кбит/сек
Каналы : 2 канала
Расположение каналов : Front: L R
Частота : 48,0 КГц
Битовая глубина : 16 бит
Метод сжатия : С потерями
Задержка видео : -248 мс.
Размер потока : 5,67 Мбайт (3%)
Меню
Скриншоты
Тех.подробности по релизу
Исходник: SATrip неизвестного происхождения (предоставлено поклонником хора).
VirtualDub: Разделение на видео и аудио потоки с одновременным разжатием в чистый AVI/PCM.
VirtualDub: Blur, resize&crop, sharpen.
Adobe Audition: Выравнивание уровня звука на каждой отдельной сцене. Шумы не убирались.
PureMotion EditStudio5: Цветокоррекция каждой отдельной сцены. Переделка "совковых" монтажных склеек на более смотрибельные. Склейка видео и аудио + титрование.
Canopus Procoder2: Кодирование в m2v/wav для DVD-проекта.
Sonic ReelDVD: Создание DVD.
Образец картинки до и после реставрации:
Download
Сайт не распространяет и не хранит электронные версии произведений, а лишь предоставляет доступ к создаваемому пользователями каталогу ссылок на торрент-файлы, которые содержат только списки хеш-сумм
Как скачивать? (для скачивания .torrent файлов необходима регистрация)
[Профиль]  [ЛС] 

Takaya Music

Стаж: 11 лет 1 месяц

Сообщений: 275

Takaya Music · 18-Июл-14 13:08 (спустя 3 дня, ред. 27-Окт-16 11:48)

Ещё БДХ:
https://rutracker.org/forum/viewtopic.php?t=4761905
https://rutracker.org/forum/viewtopic.php?t=4757048
https://rutracker.org/forum/viewtopic.php?t=4634021
https://rutracker.org/forum/viewtopic.php?t=4633990
https://rutracker.org/forum/viewtopic.php?t=4558833
https://rutracker.org/forum/viewtopic.php?t=4552894
https://rutracker.org/forum/viewtopic.php?t=4552858
https://rutracker.org/forum/viewtopic.php?t=1226243
https://rutracker.org/forum/viewtopic.php?t=4897784
https://rutracker.org/forum/viewtopic.php?t=4897939
https://rutracker.org/forum/viewtopic.php?t=4994624
https://rutracker.org/forum/viewtopic.php?t=4996254
https://rutracker.org/forum/viewtopic.php?t=5301055
[Профиль]  [ЛС] 
 
Ответить
Loading...
Error