День славянской письменности и культуры. 2014 год. [2014, эстрадная музыка, хоровая музыка, pop, choral, 2xDVD5]

Страницы:  1
Ответить
Автор
Сообщение

Takaya Music

Стаж: 11 лет 1 месяц

Сообщений: 275

Takaya Music · 07-Июн-14 15:28 (5 лет 2 месяца назад, ред. 22-Окт-16 14:10)

День славянской письменности и культуры. 2014 год.
Страна: Россия
Жанр: эстрадная музыка, хоровая музыка, pop, choral
Продолжительность: 02:19:17 + 00:52:21
Год выпуска: 2014 г.
Лейбл: Takaya Music
Описание: Двухкамерная альтернативная съемка праздничного концерта на Красной площади в честь Дня славянской письменности и культуры на 2 DVD-дисках. 2014 год.


1-й диск. Концерт.
Описание: Концерт 24 мая 2014 года.
Отличия от телевизионной трансляции:
- Длиннее на 22 минуты.
- Первые 14 минут - церемония выхода хоров на хоровой стан, исполнение произведения Александры Пахмутовой "Благовест".
- Последние 9 минут - перечисление выступавших хоров и музыкальных коллективов.
- Камеры чаще фокусируется на хорах. В частности на Большом Детском Хоре им. В. С. Попова для которого и производилась эта съёмка.
- Более живой, чем по телевизору, звук.
Треклист:
01. Благовест
02. Христос Воскресе
03. С чего начинается Родина
04. Весёлый ветер
05. Калинка
06. Летите, голуби
07. Вижу чудное приволье
08. Легендарный Севастополь
09. Орлята учатся летать
10. Наш букварь
11. Город над вольной Невой
12. Как молоды мы были
13. Нiч яка мiсячна
14. На Дальний Восток
15. Старый клён
16. Команда молодости нашей
17. Главное, ребята, сердцем не стареть
18. Песня о тревожной молодости
19. Когда мои друзья со мной
20. Кто пасётся на лугу?
21. Надежда
22. Песня о родине
23. Пора в путь-дорогу
24. Хорошие девчата
25. Птица счастья
26. Русский вальс
27. Славься
Меню: нет
Разбивка на главы по трекам: есть
Качество : DVD5
Формат: DVD video
Видео кодек: MPEG2
Аудио кодек: AC3
Видео: MPEG2, PAL 720x576 (16:9), 4100 Kbps VBR, 25.000 fps
Аудио: Dolby AC3, 192 Kbps, 48.0 KHz, 2 ch
DVDinfo
Общее
Полное имя : G:\download-films\Torrent\!Upload\День славянской письменности - 2014\DVD-1\VIDEO_TS\VIDEO_TS.BUP
Формат : DVD Video
Профиль формата : Menu
Размер файла : 8,00 Кбайт
Режим общего битрейта : Переменный
Видео
Идентификатор : 224 (0xE0)
Формат : MPEG Video
Версия формата : Version 1
Вид битрейта : Переменный
Ширина : 720 пикселей
Высота : 480 пикселей
Соотношение сторон : 4:3
Частота кадров : 29,970 кадров/сек
Стандарт вещания : NTSC
Метод сжатия : С потерями
Общее
Полное имя : G:\download-films\Torrent\!Upload\День славянской письменности - 2014\DVD-1\VIDEO_TS\VIDEO_TS.IFO
Формат : DVD Video
Профиль формата : Menu
Размер файла : 8,00 Кбайт
Режим общего битрейта : Переменный
Видео
Идентификатор : 224 (0xE0)
Формат : MPEG Video
Версия формата : Version 1
Вид битрейта : Переменный
Ширина : 720 пикселей
Высота : 480 пикселей
Соотношение сторон : 4:3
Частота кадров : 29,970 кадров/сек
Стандарт вещания : NTSC
Метод сжатия : С потерями
Общее
Полное имя : G:\download-films\Torrent\!Upload\День славянской письменности - 2014\DVD-1\VIDEO_TS\VTS_01_0.BUP
Формат : DVD Video
Профиль формата : Program
Размер файла : 66,0 Кбайт
Продолжительность : 2 ч. 19 м.
Режим общего битрейта : Переменный
Общий поток : 65 бит/сек
Видео
Идентификатор : 224 (0xE0)
Формат : MPEG Video
Версия формата : Version 2
Продолжительность : 2 ч. 19 м.
Вид битрейта : Переменный
Ширина : 720 пикселей
Высота : 576 пикселей
Соотношение сторон : 16:9
Частота кадров : 25,000 кадров/сек
Стандарт вещания : PAL
Метод сжатия : С потерями
Аудио
Идентификатор : 128 (0x80)
Формат : AC-3
Формат/Информация : Audio Coding 3
Продолжительность : 2 ч. 19 м.
Каналы : 2 канала
Частота : 48,0 КГц
Метод сжатия : С потерями
Язык : Russian
Меню
Продолжительность : 2 ч. 19 м.
00:00:00.000 : Chapter 1
00:00:18.000 : Chapter 2
00:04:00.000 : Chapter 3
00:11:00.000 : Chapter 4
00:14:00.000 : Chapter 5
00:17:00.000 : Chapter 6
00:25:00.000 : Chapter 7
00:27:40.200 : Chapter 8
00:31:40.200 : Chapter 9
00:37:30.000 : Chapter 10
00:40:34.800 : Chapter 11
00:44:12.000 : Chapter 12
00:48:45.000 : Chapter 13
00:52:00.000 : Chapter 14
00:53:30.000 : Chapter 15
00:57:10.200 : Chapter 16
01:01:10.200 : Chapter 17
01:05:15.000 : Chapter 18
01:11:00.000 : Chapter 19
01:16:04.800 : Chapter 20
01:18:55.200 : Chapter 21
01:22:19.800 : Chapter 22
01:26:34.800 : Chapter 23
01:30:10.200 : Chapter 24
01:34:34.800 : Chapter 25
01:38:34.800 : Chapter 26
01:40:10.200 : Chapter 27
01:44:10.200 : Chapter 28
01:49:30.000 : Chapter 29
01:52:30.000 : Chapter 30
01:55:00.000 : Chapter 31
01:58:19.800 : Chapter 32
02:03:10.200 : Chapter 33
02:08:10.200 : Chapter 34
02:10:39.880 : Chapter 35
02:17:15.240 : Chapter 36
02:18:57.840 : Chapter 37
List (Audio) : 0
Общее
Полное имя : G:\download-films\Torrent\!Upload\День славянской письменности - 2014\DVD-1\VIDEO_TS\VTS_01_0.IFO
Формат : DVD Video
Профиль формата : Program
Размер файла : 66,0 Кбайт
Продолжительность : 2 ч. 19 м.
Режим общего битрейта : Переменный
Общий поток : 65 бит/сек
Видео
Идентификатор : 224 (0xE0)
Формат : MPEG Video
Версия формата : Version 2
Продолжительность : 2 ч. 19 м.
Вид битрейта : Переменный
Ширина : 720 пикселей
Высота : 576 пикселей
Соотношение сторон : 16:9
Частота кадров : 25,000 кадров/сек
Стандарт вещания : PAL
Метод сжатия : С потерями
Аудио
Идентификатор : 128 (0x80)
Формат : AC-3
Формат/Информация : Audio Coding 3
Продолжительность : 2 ч. 19 м.
Каналы : 2 канала
Частота : 48,0 КГц
Метод сжатия : С потерями
Язык : Russian
Меню
Продолжительность : 2 ч. 19 м.
00:00:00.000 : Chapter 1
00:00:18.000 : Chapter 2
00:04:00.000 : Chapter 3
00:11:00.000 : Chapter 4
00:14:00.000 : Chapter 5
00:17:00.000 : Chapter 6
00:25:00.000 : Chapter 7
00:27:40.200 : Chapter 8
00:31:40.200 : Chapter 9
00:37:30.000 : Chapter 10
00:40:34.800 : Chapter 11
00:44:12.000 : Chapter 12
00:48:45.000 : Chapter 13
00:52:00.000 : Chapter 14
00:53:30.000 : Chapter 15
00:57:10.200 : Chapter 16
01:01:10.200 : Chapter 17
01:05:15.000 : Chapter 18
01:11:00.000 : Chapter 19
01:16:04.800 : Chapter 20
01:18:55.200 : Chapter 21
01:22:19.800 : Chapter 22
01:26:34.800 : Chapter 23
01:30:10.200 : Chapter 24
01:34:34.800 : Chapter 25
01:38:34.800 : Chapter 26
01:40:10.200 : Chapter 27
01:44:10.200 : Chapter 28
01:49:30.000 : Chapter 29
01:52:30.000 : Chapter 30
01:55:00.000 : Chapter 31
01:58:19.800 : Chapter 32
02:03:10.200 : Chapter 33
02:08:10.200 : Chapter 34
02:10:39.880 : Chapter 35
02:17:15.240 : Chapter 36
02:18:57.840 : Chapter 37
List (Audio) : 0
Общее
Полное имя : G:\download-films\Torrent\!Upload\День славянской письменности - 2014\DVD-1\VIDEO_TS\VTS_01_1.VOB
Формат : MPEG-PS
Размер файла : 1024 Мбайт
Продолжительность : 32 м.
Общий поток : 4383 Кбит/сек
Видео
Идентификатор : 224 (0xE0)
Формат : MPEG Video
Версия формата : Version 2
Профиль формата : [email protected]
Параметр BVOP формата : Да
Параметр матрицы формата : Выборочная
Параметр GOP формата : M=3, N=15
Продолжительность : 32 м.
Битрейт : 4100 Кбит/сек
Ширина : 720 пикселей
Высота : 576 пикселей
Соотношение сторон : 16:9
Частота кадров : 25,000 кадров/сек
Стандарт вещания : PAL
Цветовое пространство : YUV
Субдискретизация насыщенности : 4:2:0
Битовая глубина : 8 бит
Тип развёртки : Чересстрочная
Порядок развёртки : Верхнее поле первое
Метод сжатия : С потерями
Бит/(Пиксели*Кадры) : 0.395
Временной код первого кадра : 00:00:00:00
Оригинал временного кода : Group of pictures header
Размер потока : 959 Мбайт (94%)
Аудио
Идентификатор : 189 (0xBD)-128 (0x80)
Формат : AC-3
Формат/Информация : Audio Coding 3
Расширение режима : CM (complete main)
Параметр Endianness формата : Big
Режим смешивания : DVD-Video
Продолжительность : 32 м.
Вид битрейта : Постоянный
Битрейт : 192 Кбит/сек
Каналы : 2 канала
Расположение каналов : Front: L R
Частота : 48,0 КГц
Битовая глубина : 16 бит
Метод сжатия : С потерями
Размер потока : 44,8 Мбайт (4%)
Меню
Общее
Полное имя : G:\download-films\Torrent\!Upload\День славянской письменности - 2014\DVD-1\VIDEO_TS\VTS_01_2.VOB
Формат : MPEG-PS
Размер файла : 1024 Мбайт
Продолжительность : 32 м.
Общий поток : 4383 Кбит/сек
Видео
Идентификатор : 224 (0xE0)
Формат : MPEG Video
Версия формата : Version 2
Профиль формата : [email protected]
Параметр BVOP формата : Да
Параметр матрицы формата : Выборочная
Параметр GOP формата : M=3, N=15
Продолжительность : 32 м.
Битрейт : 4100 Кбит/сек
Ширина : 720 пикселей
Высота : 576 пикселей
Соотношение сторон : 16:9
Частота кадров : 25,000 кадров/сек
Стандарт вещания : PAL
Цветовое пространство : YUV
Субдискретизация насыщенности : 4:2:0
Битовая глубина : 8 бит
Тип развёртки : Чересстрочная
Порядок развёртки : Верхнее поле первое
Метод сжатия : С потерями
Бит/(Пиксели*Кадры) : 0.395
Временной код первого кадра : 00:32:39:15
Оригинал временного кода : Group of pictures header
Размер потока : 959 Мбайт (94%)
Аудио
Идентификатор : 189 (0xBD)-128 (0x80)
Формат : AC-3
Формат/Информация : Audio Coding 3
Расширение режима : CM (complete main)
Параметр Endianness формата : Big
Режим смешивания : DVD-Video
Продолжительность : 32 м.
Вид битрейта : Постоянный
Битрейт : 192 Кбит/сек
Каналы : 2 канала
Расположение каналов : Front: L R
Частота : 48,0 КГц
Битовая глубина : 16 бит
Метод сжатия : С потерями
Задержка видео : -224 мс.
Размер потока : 44,9 Мбайт (4%)
Меню
Общее
Полное имя : G:\download-films\Torrent\!Upload\День славянской письменности - 2014\DVD-1\VIDEO_TS\VTS_01_3.VOB
Формат : MPEG-PS
Размер файла : 1024 Мбайт
Продолжительность : 32 м.
Общий поток : 4383 Кбит/сек
Видео
Идентификатор : 224 (0xE0)
Формат : MPEG Video
Версия формата : Version 2
Профиль формата : [email protected]
Параметр BVOP формата : Да
Параметр матрицы формата : Выборочная
Параметр GOP формата : M=3, N=15
Продолжительность : 32 м.
Битрейт : 4100 Кбит/сек
Ширина : 720 пикселей
Высота : 576 пикселей
Соотношение сторон : 16:9
Частота кадров : 25,000 кадров/сек
Стандарт вещания : PAL
Цветовое пространство : YUV
Субдискретизация насыщенности : 4:2:0
Битовая глубина : 8 бит
Тип развёртки : Чересстрочная
Порядок развёртки : Верхнее поле первое
Метод сжатия : С потерями
Бит/(Пиксели*Кадры) : 0.395
Временной код первого кадра : 01:05:19:05
Оригинал временного кода : Group of pictures header
Размер потока : 959 Мбайт (94%)
Аудио
Идентификатор : 189 (0xBD)-128 (0x80)
Формат : AC-3
Формат/Информация : Audio Coding 3
Расширение режима : CM (complete main)
Параметр Endianness формата : Big
Режим смешивания : DVD-Video
Продолжительность : 32 м.
Вид битрейта : Постоянный
Битрейт : 192 Кбит/сек
Каналы : 2 канала
Расположение каналов : Front: L R
Частота : 48,0 КГц
Битовая глубина : 16 бит
Метод сжатия : С потерями
Задержка видео : -208 мс.
Размер потока : 44,9 Мбайт (4%)
Меню
Общее
Полное имя : G:\download-films\Torrent\!Upload\День славянской письменности - 2014\DVD-1\VIDEO_TS\VTS_01_4.VOB
Формат : MPEG-PS
Размер файла : 1024 Мбайт
Продолжительность : 32 м.
Общий поток : 4383 Кбит/сек
Видео
Идентификатор : 224 (0xE0)
Формат : MPEG Video
Версия формата : Version 2
Профиль формата : [email protected]
Параметр BVOP формата : Да
Параметр матрицы формата : Выборочная
Параметр GOP формата : M=3, N=15
Продолжительность : 32 м.
Битрейт : 4100 Кбит/сек
Ширина : 720 пикселей
Высота : 576 пикселей
Соотношение сторон : 16:9
Частота кадров : 25,000 кадров/сек
Стандарт вещания : PAL
Цветовое пространство : YUV
Субдискретизация насыщенности : 4:2:0
Битовая глубина : 8 бит
Тип развёртки : Чересстрочная
Порядок развёртки : Верхнее поле первое
Метод сжатия : С потерями
Бит/(Пиксели*Кадры) : 0.395
Временной код первого кадра : 01:37:58:20
Оригинал временного кода : Group of pictures header
Размер потока : 959 Мбайт (94%)
Аудио
Идентификатор : 189 (0xBD)-128 (0x80)
Формат : AC-3
Формат/Информация : Audio Coding 3
Расширение режима : CM (complete main)
Параметр Endianness формата : Big
Режим смешивания : DVD-Video
Продолжительность : 32 м.
Вид битрейта : Постоянный
Битрейт : 192 Кбит/сек
Каналы : 2 канала
Расположение каналов : Front: L R
Частота : 48,0 КГц
Битовая глубина : 16 бит
Метод сжатия : С потерями
Задержка видео : -192 мс.
Размер потока : 44,9 Мбайт (4%)
Меню
Общее
Полное имя : G:\download-films\Torrent\!Upload\День славянской письменности - 2014\DVD-1\VIDEO_TS\VTS_01_5.VOB
Формат : MPEG-PS
Размер файла : 271 Мбайт
Продолжительность : 8 м. 39 с.
Общий поток : 4382 Кбит/сек
Видео
Идентификатор : 224 (0xE0)
Формат : MPEG Video
Версия формата : Version 2
Профиль формата : [email protected]
Параметр BVOP формата : Да
Параметр матрицы формата : Выборочная
Параметр GOP формата : M=3, N=15
Продолжительность : 8 м. 39 с.
Битрейт : 4100 Кбит/сек
Ширина : 720 пикселей
Высота : 576 пикселей
Соотношение сторон : 16:9
Частота кадров : 25,000 кадров/сек
Стандарт вещания : PAL
Цветовое пространство : YUV
Субдискретизация насыщенности : 4:2:0
Битовая глубина : 8 бит
Тип развёртки : Чересстрочная
Порядок развёртки : Верхнее поле первое
Метод сжатия : С потерями
Бит/(Пиксели*Кадры) : 0.395
Временной код первого кадра : 02:10:38:17
Оригинал временного кода : Group of pictures header
Размер потока : 254 Мбайт (94%)
Аудио
Идентификатор : 189 (0xBD)-128 (0x80)
Формат : AC-3
Формат/Информация : Audio Coding 3
Расширение режима : CM (complete main)
Параметр Endianness формата : Big
Режим смешивания : DVD-Video
Продолжительность : 8 м. 39 с.
Вид битрейта : Постоянный
Битрейт : 192 Кбит/сек
Каналы : 2 канала
Расположение каналов : Front: L R
Частота : 48,0 КГц
Битовая глубина : 16 бит
Метод сжатия : С потерями
Задержка видео : -232 мс.
Размер потока : 11,9 Мбайт (4%)
Меню
Скриншоты


Как это выглядит в плеерах...



2-й диск. Репетиция.
Описание: Избранные фрагменты с генерального прогона концертной программы 23 мая 2014 года.
Съёмка "пристрелочная", поэтому иногда теряется фокус, неправильный горизонт, временами присутствует дрожание камеры. Но зато:
- Вы увидите, как стыковались эфиры между разными городами.
- Увидите исполнение "Беловежской пущи", которую изъяли из концертной программы по неизвестной причине.
- Услышите "Когда мои друзья со мной" в исполнении другого солиста, спевшего "если с другом буду я, а медведь - без другом".
- Побываете на самом верху хорового стана и увидите концертную площадку глазами хористов. А заодно почувствуете, каково это - петь без подзвучки, ориентируюсь только на дирижера.
- Увидите, как репетировалась финальная сцена, которую так и не показали по ТВ.
Треклист:
01. Благовест (фрагмент)
02. С чего начинается Родина
03. Весёлый ветер
04. Летите, голуби
05. Надежда
06. Команда молодости нашей
07. Орлята учатся летать
08. Наш букварь
09. Как молоды мы были
10. Беловежская пуща (не исполнялась на концерте)
11. Когда мои друзья со мной (с другим солистом)
12. Птица счастья
13. Славься (фрагмент)
Меню: нет
Разбивка на главы по трекам: есть
Качество : DVD5
Формат: DVD video
Видео кодек: MPEG2
Аудио кодек: AC3
Видео: MPEG2, PAL 720x576 (16:9), 6000 Kbps VBR, 25.000 fps
Аудио: Dolby AC3, 192 Kbps, 48.0 KHz, 2 ch
DVDinfo
Общее
Полное имя : G:\download-films\Torrent\!Upload\День славянской письменности - 2014\DVD-2\VIDEO_TS\VIDEO_TS.BUP
Формат : DVD Video
Профиль формата : Menu
Размер файла : 8,00 Кбайт
Режим общего битрейта : Переменный
Видео
Идентификатор : 224 (0xE0)
Формат : MPEG Video
Версия формата : Version 1
Вид битрейта : Переменный
Ширина : 720 пикселей
Высота : 480 пикселей
Соотношение сторон : 4:3
Частота кадров : 29,970 кадров/сек
Стандарт вещания : NTSC
Метод сжатия : С потерями
Общее
Полное имя : G:\download-films\Torrent\!Upload\День славянской письменности - 2014\DVD-2\VIDEO_TS\VIDEO_TS.IFO
Формат : DVD Video
Профиль формата : Menu
Размер файла : 8,00 Кбайт
Режим общего битрейта : Переменный
Видео
Идентификатор : 224 (0xE0)
Формат : MPEG Video
Версия формата : Version 1
Вид битрейта : Переменный
Ширина : 720 пикселей
Высота : 480 пикселей
Соотношение сторон : 4:3
Частота кадров : 29,970 кадров/сек
Стандарт вещания : NTSC
Метод сжатия : С потерями
Общее
Полное имя : G:\download-films\Torrent\!Upload\День славянской письменности - 2014\DVD-2\VIDEO_TS\VTS_01_0.BUP
Формат : DVD Video
Профиль формата : Program
Размер файла : 32,0 Кбайт
Продолжительность : 52 м.
Режим общего битрейта : Переменный
Общий поток : 83 бит/сек
Видео
Идентификатор : 224 (0xE0)
Формат : MPEG Video
Версия формата : Version 2
Продолжительность : 52 м.
Вид битрейта : Переменный
Ширина : 720 пикселей
Высота : 576 пикселей
Соотношение сторон : 16:9
Частота кадров : 25,000 кадров/сек
Стандарт вещания : PAL
Метод сжатия : С потерями
Аудио
Идентификатор : 128 (0x80)
Формат : AC-3
Формат/Информация : Audio Coding 3
Продолжительность : 52 м.
Каналы : 2 канала
Частота : 48,0 КГц
Метод сжатия : С потерями
Язык : Russian
Меню
Продолжительность : 52 м.
00:00:00.000 : Chapter 1
00:00:13.200 : Chapter 2
00:02:01.800 : Chapter 3
00:05:10.200 : Chapter 4
00:09:10.200 : Chapter 5
00:12:19.800 : Chapter 6
00:17:49.800 : Chapter 7
00:19:34.800 : Chapter 8
00:24:25.200 : Chapter 9
00:27:10.200 : Chapter 10
00:31:25.200 : Chapter 11
00:37:10.200 : Chapter 12
00:42:49.800 : Chapter 13
00:47:24.720 : Chapter 14
00:47:54.720 : Chapter 15
00:50:50.160 : Chapter 16
List (Audio) : 0
Общее
Полное имя : G:\download-films\Torrent\!Upload\День славянской письменности - 2014\DVD-2\VIDEO_TS\VTS_01_0.IFO
Формат : DVD Video
Профиль формата : Program
Размер файла : 32,0 Кбайт
Продолжительность : 52 м.
Режим общего битрейта : Переменный
Общий поток : 83 бит/сек
Видео
Идентификатор : 224 (0xE0)
Формат : MPEG Video
Версия формата : Version 2
Продолжительность : 52 м.
Вид битрейта : Переменный
Ширина : 720 пикселей
Высота : 576 пикселей
Соотношение сторон : 16:9
Частота кадров : 25,000 кадров/сек
Стандарт вещания : PAL
Метод сжатия : С потерями
Аудио
Идентификатор : 128 (0x80)
Формат : AC-3
Формат/Информация : Audio Coding 3
Продолжительность : 52 м.
Каналы : 2 канала
Частота : 48,0 КГц
Метод сжатия : С потерями
Язык : Russian
Меню
Продолжительность : 52 м.
00:00:00.000 : Chapter 1
00:00:13.200 : Chapter 2
00:02:01.800 : Chapter 3
00:05:10.200 : Chapter 4
00:09:10.200 : Chapter 5
00:12:19.800 : Chapter 6
00:17:49.800 : Chapter 7
00:19:34.800 : Chapter 8
00:24:25.200 : Chapter 9
00:27:10.200 : Chapter 10
00:31:25.200 : Chapter 11
00:37:10.200 : Chapter 12
00:42:49.800 : Chapter 13
00:47:24.720 : Chapter 14
00:47:54.720 : Chapter 15
00:50:50.160 : Chapter 16
List (Audio) : 0
Общее
Полное имя : G:\download-films\Torrent\!Upload\День славянской письменности - 2014\DVD-2\VIDEO_TS\VTS_01_1.VOB
Формат : MPEG-PS
Размер файла : 1024 Мбайт
Продолжительность : 22 м.
Общий поток : 6305 Кбит/сек
Видео
Идентификатор : 224 (0xE0)
Формат : MPEG Video
Версия формата : Version 2
Профиль формата : [email protected]
Параметр BVOP формата : Да
Параметр матрицы формата : Выборочная
Параметр GOP формата : M=3, N=15
Продолжительность : 22 м.
Битрейт : 6000 Кбит/сек
Ширина : 720 пикселей
Высота : 576 пикселей
Соотношение сторон : 16:9
Частота кадров : 25,000 кадров/сек
Стандарт вещания : PAL
Цветовое пространство : YUV
Субдискретизация насыщенности : 4:2:0
Битовая глубина : 8 бит
Тип развёртки : Чересстрочная
Порядок развёртки : Верхнее поле первое
Метод сжатия : С потерями
Бит/(Пиксели*Кадры) : 0.579
Временной код первого кадра : 00:00:00:00
Оригинал временного кода : Group of pictures header
Размер потока : 972 Мбайт (95%)
Аудио
Идентификатор : 189 (0xBD)-128 (0x80)
Формат : AC-3
Формат/Информация : Audio Coding 3
Расширение режима : CM (complete main)
Параметр Endianness формата : Big
Режим смешивания : DVD-Video
Продолжительность : 22 м.
Вид битрейта : Постоянный
Битрейт : 192 Кбит/сек
Каналы : 2 канала
Расположение каналов : Front: L R
Частота : 48,0 КГц
Битовая глубина : 16 бит
Метод сжатия : С потерями
Размер потока : 31,2 Мбайт (3%)
Меню
Общее
Полное имя : G:\download-films\Torrent\!Upload\День славянской письменности - 2014\DVD-2\VIDEO_TS\VTS_01_2.VOB
Формат : MPEG-PS
Размер файла : 1024 Мбайт
Продолжительность : 22 м.
Общий поток : 6305 Кбит/сек
Видео
Идентификатор : 224 (0xE0)
Формат : MPEG Video
Версия формата : Version 2
Профиль формата : [email protected]
Параметр BVOP формата : Да
Параметр матрицы формата : Выборочная
Параметр GOP формата : M=3, N=15
Продолжительность : 22 м.
Битрейт : 6000 Кбит/сек
Ширина : 720 пикселей
Высота : 576 пикселей
Соотношение сторон : 16:9
Частота кадров : 25,000 кадров/сек
Стандарт вещания : PAL
Цветовое пространство : YUV
Субдискретизация насыщенности : 4:2:0
Битовая глубина : 8 бит
Тип развёртки : Чересстрочная
Порядок развёртки : Верхнее поле первое
Метод сжатия : С потерями
Бит/(Пиксели*Кадры) : 0.579
Временной код первого кадра : 00:22:42:00
Оригинал временного кода : Group of pictures header
Размер потока : 972 Мбайт (95%)
Аудио
Идентификатор : 189 (0xBD)-128 (0x80)
Формат : AC-3
Формат/Информация : Audio Coding 3
Расширение режима : CM (complete main)
Параметр Endianness формата : Big
Режим смешивания : DVD-Video
Продолжительность : 22 м.
Вид битрейта : Постоянный
Битрейт : 192 Кбит/сек
Каналы : 2 канала
Расположение каналов : Front: L R
Частота : 48,0 КГц
Битовая глубина : 16 бит
Метод сжатия : С потерями
Задержка видео : -192 мс.
Размер потока : 31,2 Мбайт (3%)
Меню
Общее
Полное имя : G:\download-films\Torrent\!Upload\День славянской письменности - 2014\DVD-2\VIDEO_TS\VTS_01_3.VOB
Формат : MPEG-PS
Размер файла : 314 Мбайт
Продолжительность : 6 м. 57 с.
Общий поток : 6303 Кбит/сек
Видео
Идентификатор : 224 (0xE0)
Формат : MPEG Video
Версия формата : Version 2
Профиль формата : [email protected]
Параметр BVOP формата : Да
Параметр матрицы формата : Выборочная
Параметр GOP формата : M=3, N=15
Продолжительность : 6 м. 57 с.
Битрейт : 6000 Кбит/сек
Ширина : 720 пикселей
Высота : 576 пикселей
Соотношение сторон : 16:9
Частота кадров : 25,000 кадров/сек
Стандарт вещания : PAL
Цветовое пространство : YUV
Субдискретизация насыщенности : 4:2:0
Битовая глубина : 8 бит
Тип развёртки : Чересстрочная
Порядок развёртки : Верхнее поле первое
Метод сжатия : С потерями
Бит/(Пиксели*Кадры) : 0.579
Временной код первого кадра : 00:45:24:03
Оригинал временного кода : Group of pictures header
Размер потока : 298 Мбайт (95%)
Аудио
Идентификатор : 189 (0xBD)-128 (0x80)
Формат : AC-3
Формат/Информация : Audio Coding 3
Расширение режима : CM (complete main)
Параметр Endianness формата : Big
Режим смешивания : DVD-Video
Продолжительность : 6 м. 57 с.
Вид битрейта : Постоянный
Битрейт : 192 Кбит/сек
Каналы : 2 канала
Расположение каналов : Front: L R
Частота : 48,0 КГц
Битовая глубина : 16 бит
Метод сжатия : С потерями
Задержка видео : -200 мс.
Размер потока : 9,56 Мбайт (3%)
Меню
Скриншоты


Как это выглядит в плеерах...
Download
Сайт не распространяет и не хранит электронные версии произведений, а лишь предоставляет доступ к создаваемому пользователями каталогу ссылок на торрент-файлы, которые содержат только списки хеш-сумм
Как скачивать? (для скачивания .torrent файлов необходима регистрация)
[Профиль]  [ЛС] 

INCH-007

Стаж: 9 лет 2 месяца

Сообщений: 1202

INCH-007 · 21-Июн-14 14:08 (спустя 13 дней)

Спасибо! Много простых, хороших песен, берут за Душу!
[Профиль]  [ЛС] 

Takaya Music

Стаж: 11 лет 1 месяц

Сообщений: 275

Takaya Music · 22-Июн-14 00:01 (спустя 9 часов)

Спасибо за добрые слова!
Авторам песен
[Профиль]  [ЛС] 

Takaya Music

Стаж: 11 лет 1 месяц

Сообщений: 275

Takaya Music · 18-Июл-14 13:09 (спустя 26 дней, ред. 27-Окт-16 11:48)

Ещё БДХ:
https://rutracker.org/forum/viewtopic.php?t=4783457
https://rutracker.org/forum/viewtopic.php?t=4761905
https://rutracker.org/forum/viewtopic.php?t=4634021
https://rutracker.org/forum/viewtopic.php?t=4633990
https://rutracker.org/forum/viewtopic.php?t=4558833
https://rutracker.org/forum/viewtopic.php?t=4552894
https://rutracker.org/forum/viewtopic.php?t=4552858
https://rutracker.org/forum/viewtopic.php?t=1226243
https://rutracker.org/forum/viewtopic.php?t=4897784
https://rutracker.org/forum/viewtopic.php?t=4897939
https://rutracker.org/forum/viewtopic.php?t=4994624
https://rutracker.org/forum/viewtopic.php?t=4996254
https://rutracker.org/forum/viewtopic.php?t=5301055
[Профиль]  [ЛС] 

INCH-007

Стаж: 9 лет 2 месяца

Сообщений: 1202

INCH-007 · 24-Июл-14 12:35 (спустя 5 дней)

Эта видеозапись с другой камеры? По телевизору показывали немного с другого ракурса, и в углу был значок телеканала "Россия"
[Профиль]  [ЛС] 

Takaya Music

Стаж: 11 лет 1 месяц

Сообщений: 275

Takaya Music · 25-Июл-14 21:57 (спустя 1 день 9 часов)

В описании всё достаточно ясно написано.
[Профиль]  [ЛС] 

cinchic

Стаж: 7 лет 5 месяцев

Сообщений: 15

cinchic · 23-Фев-15 18:24 (спустя 6 месяцев)

это что за подлог?какая славянская то христосе васкресе.это что издевательство.какое отношение иудохристианство имеет к лавянам?!
[Профиль]  [ЛС] 

Takaya Music

Стаж: 11 лет 1 месяц

Сообщений: 275

Takaya Music · 23-Фев-15 22:09 (спустя 3 часа, ред. 23-Фев-15 22:09)

cinchic, во-первых: https://ru.wikipedia.org/wiki/%D0%94%D0%B5%D0%BD%D1%8C_%D1%81%D0%BB%D0%B0%D0%B2%D...1%83%D1%80%D1%8B
А, во-вторых, научитесь писать по-русски без ошибок, славянин Вы наш
[Профиль]  [ЛС] 

zag-zag

Стаж: 8 лет 8 месяцев

Сообщений: 1


zag-zag · 31-Май-15 02:42 (спустя 3 месяца 7 дней, ред. 31-Май-15 02:42)

У кого нибудь есть записи песен с этого концерта отдельно в формате MP3?
[Профиль]  [ЛС] 
 
Ответить
Loading...
Error