Болотная тварь / Swamp Thing / Сезон: 1 / Серии: 1-3 из 10 (Лен Уайзман, Кэрол Бенкер, Тоа Фрейзер) [2019, США, ужасы, фантастика, фэнтези, боевик, драма., WEB-DLRip] MVO (LostFilm) + Original

Страницы:  1

Тема закрыта
Автор
Сообщение

Hanzores

Стаж: 6 лет 9 месяцев

Сообщений: 176

Hanzores · 04-Июн-19 10:08 (1 месяц 15 дней назад, ред. 17-Июн-19 15:43)

Болотная тварь / Swamp Thing

Год выпуска: 2019
Страна: США
Жанр: Ужасы, фантастика, фэнтези, боевик, драма
Продолжительность: ~01:00:00
Перевод: Профессиональный (многоголосый закадровый) | LostFilm
Режиссёр: Лен Уайзман, Кэрол Бенкер, Тоа Фрейзер
В ролях: Кристал Рид, Энди Бин, Дерек Мирс, Хендерсон Вэйд, Дженнифер Билз, Вирджиния Мэдсен, Уилл Пэттон, Мария Стэн, Селена Андусе, Кевин Дюран
Описание: Микробиолог Эбби Аркейн возвращается в родной город — здесь разбушевался смертельный вирус, который необходимо изучить и нейтрализовать. Она знакомится с коллегой Алеком Холландом, их совместная работа стремительно перерастает в романтические отношения, но на всем этом ставит точку несчастный случай на болоте, в результате которого Алек погибает. Убитая горем Эбби еще не знает, что ее ждет новая встреча с возлюбленным, который теперь превратился в человекообразное растение с супергеройскими способностями.

Ссылка на предыдущие и альтернативные раздачи

Качество: WEB-DLRip
Формат: AVI
Видео: XviD, 704x320, 23,976 fps, ~1600 kbps
Аудио #1: 48 kHz, MPEG Layer 3, 2 ch, ~128.00 kbps | Rus
Аудио #2: 48 kHz, MPEG Layer 3, 2 ch, ~128.00 kbps | Eng
Субтитры: нет
Реклама: нет

MediaInfo

Format : AVI
Format/Info : Audio Video Interleave
File size : 803 MiB
Duration : 59 min 43 s
Overall bit rate : 1 880 kb/s
Writing application : VirtualDubMod 1.5.10.2 (build 2540/release)
Writing library : VirtualDubMod build 2540/release
Video
ID : 0
Format : MPEG-4 Visual
Format profile : Advanced [email protected]
Format settings : BVOP2 / Custom Matrix
Format settings, BVOP : 2
Format settings, QPel : No
Format settings, GMC : No warppoints
Format settings, Matrix : Custom
Codec ID : XVID
Codec ID/Hint : XviD
Duration : 59 min 43 s
Bit rate : 1 609 kb/s
Width : 704 pixels
Height : 320 pixels
Display aspect ratio : 2.2:1
Frame rate : 23.976 (24000/1001) FPS
Color space : YUV
Chroma subsampling : 4:2:0
Bit depth : 8 bits
Scan type : Progressive
Compression mode : Lossy
Bits/(Pixel*Frame) : 0.298
Stream size : 687 MiB (86%)
Writing library : XviD 73
Audio #1
ID : 1
Format : MPEG Audio
Format version : Version 1
Format profile : Layer 3
Format settings : Joint stereo
Codec ID : 55
Codec ID/Hint : MP3
Duration : 59 min 43 s
Bit rate mode : Constant
Bit rate : 128 kb/s
Channel(s) : 2 channels
Sampling rate : 48.0 kHz
Compression mode : Lossy
Stream size : 54.7 MiB (7%)
Alignment : Split accross interleaves
Interleave, duration : 42 ms (1.00 video frame)
Interleave, preload duratio : 500 ms
Audio #2
ID : 2
Format : MPEG Audio
Format version : Version 1
Format profile : Layer 3
Format settings : Joint stereo
Codec ID : 55
Codec ID/Hint : MP3
Duration : 59 min 43 s
Bit rate mode : Constant
Bit rate : 128 kb/s
Channel(s) : 2 channels
Sampling rate : 48.0 kHz
Compression mode : Lossy
Stream size : 54.7 MiB (7%)
Alignment : Split accross interleaves
Interleave, duration : 42 ms (1.00 video frame)
Interleave, preload duratio : 500 ms
Скриншоты
Внимание! Раздача ведётся путём добавления новых серий
Внимание! Раздача ведётся путём добавления новых серий; при каждом добавлении создаётся новый торрент. Чтобы начать докачку новой серии, пользователям необходимо сделать следующее:
(1) остановить скачивание,
(2) удалить старый торрент у себя из клиента (старые серии удалять не надо),
(3) скачать новый торрент и запустить его у себя в клиенте вместо старого, при этом указать клиенту путь в старую папку куда и должно происходить скачивание новых серий.
Ваш клиент при этом должен произвести хеширование (проверку) старой папки (если не производит сам - помогите ему сделать это), и будет докачивать только те серии которых у вас ещё нет. Старые серии при этом не удаляются, а продолжают раздаваться!
Eсли вы уже удалили старые серии, то предотвратить повторную закачку старых серий можно, отжав галочку в соответствующих местах при запуске нового торрента. По возможности, желательно не удалять старые серии как можно дольше чтобы релизёр не столько продолжал раздавать старые серии, а смог сконцентрироваться на новых.

[Профиль]  [ЛС] 

Celta88

Moderator

Стаж: 10 лет 2 месяца

Сообщений: 7360

Celta88 · 04-Июн-19 11:12 (спустя 1 час 4 мин., ред. 04-Июн-19 11:12)

Цитата:
Болотная тварь / Swamp Thing / Сезон: 1 / Серии: 1 из 10 (Оуэн Харрис) [2019, США, ужасы, фантастика, фэнтези, боевик, драма., WEB-DLRip] MVO (LostFilm) + Original
?
? недооформлено

Зарубежные сериалы / Раздачи со статусом "Недооформлено"
[Профиль]  [ЛС] 

bot · 04-Июн-19 11:12 (спустя 14 сек.)

Тема была перенесена из форума Зарубежные сериалы в форум Новинки и сериалы в стадии показа
Celta88
 

-KPuTuKA-

Стаж: 1 год 11 месяцев

Сообщений: 92

-KPuTuKA- · 04-Июн-19 11:29 (спустя 16 мин.)

Hanzores писал(а):
Продолжительность: ~ 00:30:00
Исправьте!
[Профиль]  [ЛС] 

Celta88

Moderator

Стаж: 10 лет 2 месяца

Сообщений: 7360

Celta88 · 04-Июн-19 11:37 (спустя 8 мин.)



проверено
[Профиль]  [ЛС] 

gudvinis

Стаж: 10 лет 5 месяцев

Сообщений: 127

gudvinis · 04-Июн-19 13:44 (спустя 2 часа 7 мин.)

судя по постеру-Болотная травь...)))
[Профиль]  [ЛС] 

Я Икс

Стаж: 7 лет 5 месяцев

Сообщений: 34

Я Икс · 08-Июн-19 15:38 (спустя 4 дня)

gudvinis писал(а):
77479700судя по постеру-Болотная травь...)))

Теперь придётся смотреть, чтобы узнать наверняка!
[Профиль]  [ЛС] 

999111ist1

Стаж: 9 лет 2 месяца

Сообщений: 74


999111ist1 · 10-Июн-19 18:19 (спустя 2 дня 2 часа)

Спасибо!
[Профиль]  [ЛС] 

Hanzores

Стаж: 6 лет 9 месяцев

Сообщений: 176

Hanzores · 11-Июн-19 12:17 (спустя 17 часов)

+2
[Профиль]  [ЛС] 

Hanzores

Стаж: 6 лет 9 месяцев

Сообщений: 176

Hanzores · 17-Июн-19 15:43 (спустя 6 дней)

+3
[Профиль]  [ЛС] 

Wentworth_Miller

Moderator

Стаж: 10 лет 4 месяца

Сообщений: 7500

Wentworth_Miller · 23-Июн-19 18:56 (спустя 6 дней)

https://rutracker.org/forum/viewtopic.php?t=5748149
поглощено
[Профиль]  [ЛС] 

bot · 27-Июн-19 16:41 (спустя 3 дня)

Тема была перенесена из форума Новинки и сериалы в стадии показа в форум Архив (Зарубежные сериалы)
Wentworth_Miller
 
 
Тема закрыта
Loading...
Error