Приключения Тинтина: Тайна Единорога / The Adventures of Tintin (Стивен Спилберг / Steven Spielberg) [2011, мультфильм, детектив, приключения, семейный, BDRip, HD 1080p + 720p, iTunes Extras] Dub (rus, ukr), Original, sub (rus, eng, cze, bul)

Страницы:  1

Ответить
Автор
Сообщение

ovsyannikov.ivan

VIP (Заслуженный)

Стаж: 9 лет 5 месяцев

Сообщений: 1921

ovsyannikov.ivan · 09-Окт-12 20:47 (6 лет 9 месяцев назад, ред. 10-Окт-12 15:12)


Приключения Тинтина: Тайна Единорога

The Adventures of Tintin

7.6 / 10 | 74 / 100 | 7.698 / 10 | MPAA: PG




iTunes Extras
Дополнительные материалы включают:
  1. Тост за Тинтина: часть 1
  2. Путь к Тинтину
  3. Мир Тинтина
  4. Кто есть кто
  5. Художественная концепция
  6. Съемки актеров
  7. Все о снежке
  8. Анимация Тинтина
  9. Музыка для фильма
  10. Коллекция Тинтина
  11. Тост за Тинтина: часть 2
  12. Тизер (русский дубляж)
  13. Трейлер (русский дубляж)
Дополнительные материалы (исключая тизер и трейлер) на английском языке с русскими субтитрами.


Другие раздачи
  1. Full HD 1080p и HD 720p версии фильма; включает iTunes Extras
  2. SD 480p версия фильма
  3. Full HD 1080p 3D-версия (эспериментальная!)



Общая информация
Год выпуска: 2011
Страна: США
Жанр: мультфильм, детектив, приключения, семейный
Продолжительность: 1 час 46 минут (1:46:51)



Создатели и актеры
Режиссеры: Стивен Спилберг
В ролях: Джейми Белл, Энди Серкис, Дэниэл Крэйг, Саймон Пегг, Ник Фрост, Дэниэл Мейс, Гад Эльмалех, Тоби Джонс, Джо Старр
Сценарий: Стивен Моффат, Эдгар Райт, Джо Корниш
Продюссеры: Питер Джексон, Стивен Спилберг



Описание
Тинтин — молодой журналист, жизнь которого всегда сопряжена с опасностью. Однажды в руки журналиста попадает модель старинного корабля XVII–го столетия под названием «Единорог». Однако совершенно внезапно оказывается, что маленьким кораблем хочет завладеть очень большое количество людей, и они явно не относят к своим увлечениям коллекционирование моделей.



Технические параметры
Исходник: Blu-Ray CEE 1080p
Формат: MP4 (контейнер m4v)
Перевод: Русский (полное дублирование), Украинский (полное дублирование)
Субтитры: Русские, Английские, Чешские, Болгарские
Навигация по главам (с изображениями)
Скриншоты iTunes Extras
iTunes Meta Tags
Код:
Sort Name: Adventures of Tintin 1
XID: RG-Apple:vendor_id:2011-406186
contentID: 495058155
Copyright: © DW STUDIOS, LLC. and Columbia Pictures Industries, Inc. All Rights Reserver.
Screenwriters: Стивен Моффат, Эдгар Райт, Джо Корниш
Producers: Питер Джексон, Стивен Спилберг
Director: Стивен Спилберг
Cast: Джейми Белл, Энди Серкис, Дэниэл Крэйг, Саймон Пегг, Ник Фрост, Дэниэл Мейс, Гад Эльмалех, Тоби Джонс, Джо Старр
Studio: Paramount
Rating Annotation: PG For adventure action violence, some drunkenness brief smoking.
Rating: 3
Long Description: Тинтин — молодой журналист, жизнь которого всегда сопряжена с опасностью. Однажды в руки журналиста попадает модель старинного корабля XVII–го столетия под названием «Единорог». Однако совершенно внезапно оказывается, что маленьким кораблем хочет завладеть очень большое количество людей, и они явно не относят к своим увлечениям коллекционирование моделей.
Description: Тинтин — молодой журналист, жизнь которого всегда сопряжена с опасностью. Однажды в руки журналиста попадает модель старинного корабля XVII–го столетия...
Release Date: 2011-10-23T07:00:00Z
Genre: Action & Adventure
Artist: Steven Spielberg
Name: The Adventures of Tintin

HD 1080p

Видео: H.264, 1920 x 816px (2.35:1), 23.976 fps, ~7000 kbps, без анаморфа
Аудио: Русский (AAC Stereo и Dolby Digital 5.1), Украинский (AAC Stereo) Английский (AAC Stereo и Dolby Digital 6.1 EX)
Скриншоты HD 1080p (5 шт.)
Media Info
Код:
General
Format       : MPEG-4
Codec ID       : M4V
File size       : 6.63 GiB
Duration       : 1h 46mn
Overall bit rate mode    : Variable
Overall bit rate     : 8 879 Kbps
Movie name      : The Adventures of Tintin
Performer      : Steven Spielberg
Genre       : Action & Adventure
Recorded date      : UTC 2011-10-23 07:00:00
Encoded date      : UTC 2012-03-28 17:03:38
Tagged date      : UTC 2012-10-09 09:39:33
Copyright      : © DW STUDIOS, LLC. and Columbia Pictures Industries, Inc. All Rights Reserver.
Cover       : Yes
Video #1
ID        : 1
Format       : AVC
Format/Info      : Advanced Video Codec
Format profile      : [email protected]
Format settings, CABAC    : Yes
Format settings, ReFrames   : 4 frames
Codec ID       : avc1
Codec ID/Info      : Advanced Video Coding
Duration       : 1h 46mn
Bit rate mode      : Variable
Bit rate       : 7 000 Kbps
Width       : 1 920 pixels
Height       : 816 pixels
Display aspect ratio    : 2.35:1
Frame rate mode     : Variable
Frame rate      : 23.976 fps
Minimum frame rate    : 11.947 fps
Maximum frame rate    : 24.390 fps
Color space      : YUV
Chroma subsampling    : 4:2:0
Bit depth       : 8 bits
Scan type       : Progressive
Bits/(Pixel*Frame)     : 0.186
Stream size      : 5.22 GiB (79%)
Writing library      : x264 core 112
Encoding settings     : cabac=1 / ref=4 / deblock=1:0:0 / analyse=0x3:0x133 / me=umh / subme=10 / psy=1 / psy_rd=0.70:0.15 / mixed_ref=1 / me_range=32 / chroma_me=1 / trellis=2 / 8x8dct=1 / cqm=0 / deadzone=21,11 / fast_pskip=0 / chroma_qp_offset=-3 / threads=36 / sliced_threads=0 / nr=0 / decimate=0 / interlaced=0 / constrained_intra=0 / bframes=4 / b_pyramid=2 / b_adapt=2 / b_bias=0 / direct=3 / weightb=1 / open_gop=0 / weightp=2 / keyint=240 / keyint_min=23 / scenecut=40 / intra_refresh=0 / rc_lookahead=60 / rc=2pass / mbtree=1 / bitrate=7000 / ratetol=1.0 / qcomp=0.60 / qpmin=0 / qpmax=51 / qpstep=4 / cplxblur=20.0 / qblur=0.5 / vbv_maxrate=25000 / vbv_bufsize=25000 / ip_ratio=1.40 / aq=1:1.00 / nal_hrd=none
Language      : English
Encoded date      : UTC 2012-03-28 17:03:38
Tagged date      : UTC 2012-03-28 17:09:51
Color primaries     : BT.709-5, BT.1361, IEC 61966-2-4, SMPTE RP177
Transfer characteristics    : BT.709-5, BT.1361
Matrix coefficients     : BT.709-5, BT.1361, IEC 61966-2-4 709, SMPTE RP177
Video #2
ID        : 12
Format       : JPEG
Codec ID       : jpeg
Duration       : 1h 46mn
Bit rate mode      : Variable
Bit rate       : 702 bps
Width       : 640 pixels
Height       : 272 pixels
Display aspect ratio    : 2.35:1
Frame rate mode     : Variable
Frame rate      : 0.002 fps
Minimum frame rate    : 0.002 fps
Maximum frame rate    : 0.004 fps
Color space      : YUV
Chroma subsampling    : 4:2:0
Bit depth       : 8 bits
Compression mode    : Lossy
Bits/(Pixel*Frame)     : 2.016
Stream size      : 686 KiB (0%)
Language      : English
Encoded date      : UTC 2012-10-08 19:43:48
Tagged date      : UTC 2012-10-08 19:43:48
Audio #1
ID        : 2
Format       : AAC
Format/Info      : Advanced Audio Codec
Format profile      : LC
Codec ID       : 40
Duration       : 1h 46mn
Bit rate mode      : Variable
Bit rate       : 198 Kbps
Maximum bit rate     : 324 Kbps
Channel(s)      : 2 channels
Channel positions     : Front: L R
Sampling rate      : 48.0 KHz
Compression mode    : Lossy
Stream size      : 151 MiB (2%)
Language      : Russian
Encoded date      : UTC 2012-03-28 17:03:38
Tagged date      : UTC 2012-03-28 17:03:53
Audio #2
ID        : 3
Format       : AAC
Format/Info      : Advanced Audio Codec
Format profile      : LC
Codec ID       : 40
Duration       : 1h 46mn
Bit rate mode      : Variable
Bit rate       : 198 Kbps
Maximum bit rate     : 325 Kbps
Channel(s)      : 2 channels
Channel positions     : Front: L R
Sampling rate      : 48.0 KHz
Compression mode    : Lossy
Stream size      : 151 MiB (2%)
Language      : Ukrainian
Encoded date      : UTC 2012-03-28 17:03:38
Tagged date      : UTC 2012-03-28 17:04:09
Audio #3
ID        : 4
Format       : AAC
Format/Info      : Advanced Audio Codec
Format profile      : LC
Codec ID       : 40
Duration       : 1h 46mn
Bit rate mode      : Variable
Bit rate       : 198 Kbps
Maximum bit rate     : 297 Kbps
Channel(s)      : 2 channels
Channel positions     : Front: L R
Sampling rate      : 48.0 KHz
Compression mode    : Lossy
Stream size      : 152 MiB (2%)
Language      : English
Encoded date      : UTC 2012-03-28 17:03:38
Tagged date      : UTC 2012-03-28 17:04:36
Audio #4
ID        : 5
Format       : AC-3
Format/Info      : Audio Coding 3
Mode extension     : CM (complete main)
Format settings, Endianness   : Big
Codec ID       : ac-3
Duration       : 1h 46mn
Bit rate mode      : Constant
Bit rate       : 640 Kbps
Channel(s)      : 6 channels
Channel positions     : Front: L C R, Side: L R, LFE
Sampling rate      : 48.0 KHz
Bit depth       : 16 bits
Compression mode    : Lossy
Stream size      : 489 MiB (7%)
Language      : Russian
Encoded date      : UTC 2012-03-28 17:03:38
Tagged date      : UTC 2012-03-28 17:04:57
Audio #5
ID        : 6
Format       : AC-3
Format/Info      : Audio Coding 3
Mode extension     : CM (complete main)
Format settings, Endianness   : Big
Codec ID       : ac-3
Duration       : 1h 46mn
Bit rate mode      : Constant
Bit rate       : 640 Kbps
Channel(s)      : 6 channels
Channel positions     : Front: L C R, Side: L R, LFE
Sampling rate      : 48.0 KHz
Bit depth       : 16 bits
Compression mode    : Lossy
Stream size      : 489 MiB (7%)
Language      : English
Encoded date      : UTC 2012-03-28 17:03:38
Tagged date      : UTC 2012-03-28 17:05:21
Text #1
ID        : 7
Format       : Timed text
Muxing mode      : sbtl
Codec ID       : tx3g
Duration       : 1h 40mn
Bit rate mode      : Variable
Bit rate       : 79 bps
Stream size      : 58.0 KiB (0%)
Language      : Russian
Encoded date      : UTC 2012-03-28 17:03:38
Tagged date      : UTC 2012-03-28 17:05:21
Text #2
ID        : 8
Format       : Timed text
Muxing mode      : sbtl
Codec ID       : tx3g
Duration       : 1h 40mn
Bit rate mode      : Variable
Bit rate       : 59 bps
Stream size      : 43.5 KiB (0%)
Language      : English
Encoded date      : UTC 2012-03-28 17:03:38
Tagged date      : UTC 2012-03-28 17:05:21
Text #3
ID        : 9
Format       : Timed text
Muxing mode      : sbtl
Codec ID       : tx3g
Duration       : 1h 40mn
Bit rate mode      : Variable
Bit rate       : 53 bps
Stream size      : 39.1 KiB (0%)
Language      : Czech
Encoded date      : UTC 2012-03-28 17:03:38
Tagged date      : UTC 2012-03-28 17:05:21
Text #4
ID        : 10
Format       : Timed text
Muxing mode      : sbtl
Codec ID       : tx3g
Duration       : 1h 40mn
Bit rate mode      : Variable
Bit rate       : 72 bps
Stream size      : 53.2 KiB (0%)
Language      : Bulgarian
Encoded date      : UTC 2012-03-28 17:03:38
Tagged date      : UTC 2012-03-28 17:05:21
Text #5
ID        : 11
Format       : Apple text
Codec ID       : text
Duration       : 1h 46mn
Bit rate mode      : Variable
Bit rate       : 0 bps
Stream size      : 375 Bytes (0%)
Language      : English
Encoded date      : UTC 2012-10-08 19:43:22
Tagged date      : UTC 2012-10-08 19:43:22
x264 Log
Код:
x264 [info]: frame I:1197  Avg QP:16.12  size:183307  PSNR Mean Y:48.43 U:49.92 V:52.41 Avg:49.05 Global:48.59
x264 [info]: frame P:43828 Avg QP:18.70  size: 68231  PSNR Mean Y:46.56 U:49.22 V:51.78 Avg:47.40 Global:46.92
x264 [info]: frame B:108704 Avg QP:21.73  size: 22012  PSNR Mean Y:45.67 U:48.93 V:51.48 Avg:46.60 Global:46.14
x264 [info]: consecutive B-frames:  2.5%  6.6% 12.8% 60.6% 17.5%
x264 [info]: mb I  I16..4: 13.3% 60.9% 25.8%
x264 [info]: mb P  I16..4:  4.1% 19.3%  2.9%  P16..4: 45.4% 19.6%  4.5%  0.5%  0.4%    skip: 3.2%
x264 [info]: mb B  I16..4:  0.4%  2.4%  0.5%  B16..8: 45.6%  9.9%  2.0%  direct: 5.0%  skip:34.1%  L0:43.1% L1:46.1% BI:10.7%
x264 [info]: 8x8 transform intra:71.9% inter:60.4%
x264 [info]: direct mvs  spatial:98.4% temporal:1.6%
x264 [info]: coded y,uvDC,uvAC intra: 79.3% 75.2% 51.0% inter: 24.2% 20.4% 10.7%
x264 [info]: i16 v,h,dc,p: 20% 14% 20% 46%
x264 [info]: i8 v,h,dc,ddl,ddr,vr,hd,vl,hu: 10% 13%  8%  8% 12% 11% 13% 11% 14%
x264 [info]: i4 v,h,dc,ddl,ddr,vr,hd,vl,hu: 11% 17%  7%  7% 12% 10% 13%  8% 14%
x264 [info]: i8c dc,h,v,p: 42% 25% 18% 15%
x264 [info]: Weighted P-Frames: Y:1.9% UV:1.2%
x264 [info]: ref P L0: 65.7%  7.1% 18.3%  7.9%  0.9%  0.0%
x264 [info]: ref B L0: 90.3%  7.9%  1.8%
x264 [info]: ref B L1: 95.5%  4.5%
x264 [info]: SSIM Mean Y:0.9845508 (18.111db)
x264 [info]: PSNR Mean Y:45.942 U:49.021 V:51.575 Avg:46.851 Global:46.361 kb/s:6990.37

HD 720p

Видео: H.264, 1280 x 544px (2.35:1), 23.976 fps, ~4200 kbps, без анаморфа
Аудио: Русский (AAC Stereo и Dolby Digital 5.1), Украинский (AAC Stereo) Английский (AAC Stereo и Dolby Digital 6.1 EX)
Скриншоты HD 720p (5 шт.)
Media Info
Код:
General
Format       : MPEG-4
Codec ID       : M4V
File size       : 4.54 GiB
Duration       : 1h 46mn
Overall bit rate mode    : Variable
Overall bit rate     : 6 083 Kbps
Movie name      : The Adventures of Tintin
Performer      : Steven Spielberg
Genre       : Action & Adventure
Recorded date      : UTC 2011-10-23 07:00:00
Encoded date      : UTC 2012-03-28 16:17:18
Tagged date      : UTC 2012-10-09 07:18:37
Copyright      : © DW STUDIOS, LLC. and Columbia Pictures Industries, Inc. All Rights Reserver.
Cover       : Yes
Video #1
ID        : 1
Format       : AVC
Format/Info      : Advanced Video Codec
Format profile      : [email protected]
Format settings, CABAC    : No
Format settings, ReFrames   : 3 frames
Codec ID       : avc1
Codec ID/Info      : Advanced Video Coding
Duration       : 1h 46mn
Bit rate mode      : Variable
Bit rate       : 4 200 Kbps
Width       : 1 280 pixels
Height       : 544 pixels
Display aspect ratio    : 2.35:1
Frame rate mode     : Variable
Frame rate      : 23.976 fps
Minimum frame rate    : 11.905 fps
Maximum frame rate    : 24.570 fps
Color space      : YUV
Chroma subsampling    : 4:2:0
Bit depth       : 8 bits
Scan type       : Progressive
Bits/(Pixel*Frame)     : 0.252
Stream size      : 3.13 GiB (69%)
Writing library      : x264 core 112
Encoding settings     : cabac=0 / ref=3 / deblock=1:0:0 / analyse=0x3:0x113 / me=umh / subme=9 / psy=1 / psy_rd=0.70:0.00 / mixed_ref=1 / me_range=32 / chroma_me=1 / trellis=0 / 8x8dct=1 / cqm=0 / deadzone=21,11 / fast_pskip=0 / chroma_qp_offset=-2 / threads=36 / sliced_threads=0 / nr=0 / decimate=0 / interlaced=0 / constrained_intra=0 / bframes=3 / b_pyramid=0 / b_adapt=2 / b_bias=0 / direct=1 / weightb=0 / open_gop=0 / weightp=0 / keyint=240 / keyint_min=23 / scenecut=40 / intra_refresh=0 / rc_lookahead=40 / rc=2pass / mbtree=1 / bitrate=4200 / ratetol=1.0 / qcomp=0.60 / qpmin=0 / qpmax=51 / qpstep=4 / cplxblur=20.0 / qblur=0.5 / vbv_maxrate=9500 / vbv_bufsize=9500 / ip_ratio=1.40 / aq=1:1.00 / nal_hrd=none
Language      : English
Encoded date      : UTC 2012-03-28 16:17:19
Tagged date      : UTC 2012-03-28 16:19:54
Color primaries     : BT.709-5, BT.1361, IEC 61966-2-4, SMPTE RP177
Transfer characteristics    : BT.709-5, BT.1361
Matrix coefficients     : BT.709-5, BT.1361, IEC 61966-2-4 709, SMPTE RP177
Video #2
ID        : 12
Format       : JPEG
Codec ID       : jpeg
Duration       : 1h 46mn
Bit rate mode      : Variable
Bit rate       : 692 bps
Width       : 640 pixels
Height       : 272 pixels
Display aspect ratio    : 2.35:1
Frame rate mode     : Variable
Frame rate      : 0.002 fps
Minimum frame rate    : 0.002 fps
Maximum frame rate    : 0.004 fps
Color space      : YUV
Chroma subsampling    : 4:2:0
Bit depth       : 8 bits
Compression mode    : Lossy
Bits/(Pixel*Frame)     : 1.988
Stream size      : 676 KiB (0%)
Language      : English
Encoded date      : UTC 2012-10-08 19:50:10
Tagged date      : UTC 2012-10-08 19:50:11
Audio #1
ID        : 2
Format       : AAC
Format/Info      : Advanced Audio Codec
Format profile      : LC
Codec ID       : 40
Duration       : 1h 46mn
Bit rate mode      : Variable
Bit rate       : 198 Kbps
Maximum bit rate     : 324 Kbps
Channel(s)      : 2 channels
Channel positions     : Front: L R
Sampling rate      : 48.0 KHz
Compression mode    : Lossy
Stream size      : 151 MiB (3%)
Language      : Russian
Encoded date      : UTC 2012-03-28 16:17:18
Tagged date      : UTC 2012-03-28 16:17:23
Audio #2
ID        : 3
Format       : AAC
Format/Info      : Advanced Audio Codec
Format profile      : LC
Codec ID       : 40
Duration       : 1h 46mn
Bit rate mode      : Variable
Bit rate       : 198 Kbps
Maximum bit rate     : 325 Kbps
Channel(s)      : 2 channels
Channel positions     : Front: L R
Sampling rate      : 48.0 KHz
Compression mode    : Lossy
Stream size      : 151 MiB (3%)
Language      : Ukrainian
Encoded date      : UTC 2012-03-28 16:17:19
Tagged date      : UTC 2012-03-28 16:23:10
Audio #3
ID        : 4
Format       : AAC
Format/Info      : Advanced Audio Codec
Format profile      : LC
Codec ID       : 40
Duration       : 1h 46mn
Bit rate mode      : Variable
Bit rate       : 198 Kbps
Maximum bit rate     : 297 Kbps
Channel(s)      : 2 channels
Channel positions     : Front: L R
Sampling rate      : 48.0 KHz
Compression mode    : Lossy
Stream size      : 152 MiB (3%)
Language      : English
Encoded date      : UTC 2012-03-28 16:17:19
Tagged date      : UTC 2012-03-28 16:21:15
Audio #4
ID        : 5
Format       : AC-3
Format/Info      : Audio Coding 3
Mode extension     : CM (complete main)
Format settings, Endianness   : Big
Codec ID       : ac-3
Duration       : 1h 46mn
Bit rate mode      : Constant
Bit rate       : 640 Kbps
Channel(s)      : 6 channels
Channel positions     : Front: L C R, Side: L R, LFE
Sampling rate      : 48.0 KHz
Bit depth       : 16 bits
Compression mode    : Lossy
Stream size      : 489 MiB (11%)
Language      : Russian
Encoded date      : UTC 2012-03-28 16:17:19
Tagged date      : UTC 2012-03-28 16:23:28
Audio #5
ID        : 6
Format       : AC-3
Format/Info      : Audio Coding 3
Mode extension     : CM (complete main)
Format settings, Endianness   : Big
Codec ID       : ac-3
Duration       : 1h 46mn
Bit rate mode      : Constant
Bit rate       : 640 Kbps
Channel(s)      : 6 channels
Channel positions     : Front: L C R, Side: L R, LFE
Sampling rate      : 48.0 KHz
Bit depth       : 16 bits
Compression mode    : Lossy
Stream size      : 489 MiB (11%)
Language      : English
Encoded date      : UTC 2012-03-28 16:17:19
Tagged date      : UTC 2012-03-28 16:23:06
Text #1
ID        : 7
Format       : Timed text
Muxing mode      : sbtl
Codec ID       : tx3g
Duration       : 1h 40mn
Bit rate mode      : Variable
Bit rate       : 79 bps
Stream size      : 58.0 KiB (0%)
Language      : Russian
Encoded date      : UTC 2012-03-28 16:17:19
Tagged date      : UTC 2012-03-28 16:23:28
Text #2
ID        : 8
Format       : Timed text
Muxing mode      : sbtl
Codec ID       : tx3g
Duration       : 1h 40mn
Bit rate mode      : Variable
Bit rate       : 59 bps
Stream size      : 43.5 KiB (0%)
Language      : English
Encoded date      : UTC 2012-03-28 16:17:19
Tagged date      : UTC 2012-03-28 16:23:28
Text #3
ID        : 9
Format       : Timed text
Muxing mode      : sbtl
Codec ID       : tx3g
Duration       : 1h 40mn
Bit rate mode      : Variable
Bit rate       : 53 bps
Stream size      : 39.1 KiB (0%)
Language      : Czech
Encoded date      : UTC 2012-03-28 16:17:19
Tagged date      : UTC 2012-03-28 16:23:28
Text #4
ID        : 10
Format       : Timed text
Muxing mode      : sbtl
Codec ID       : tx3g
Duration       : 1h 40mn
Bit rate mode      : Variable
Bit rate       : 72 bps
Stream size      : 53.2 KiB (0%)
Language      : Bulgarian
Encoded date      : UTC 2012-03-28 16:17:19
Tagged date      : UTC 2012-03-28 16:23:28
Text #5
ID        : 11
Format       : Apple text
Codec ID       : text
Duration       : 1h 46mn
Bit rate mode      : Variable
Bit rate       : 0 bps
Stream size      : 375 Bytes (0%)
Language      : English
Encoded date      : UTC 2012-10-08 19:49:58
Tagged date      : UTC 2012-10-08 19:49:58
x264 Log
Код:
x264 [info]: frame I:1309  Avg QP:14.78  size: 99294  PSNR Mean Y:48.44 U:50.37 V:52.01 Avg:49.10 Global:48.59
x264 [info]: frame P:69514 Avg QP:17.01  size: 35408  PSNR Mean Y:46.28 U:49.53 V:51.06 Avg:47.16 Global:46.47
x264 [info]: frame B:82906 Avg QP:20.99  size:  9293  PSNR Mean Y:45.32 U:49.30 V:50.87 Avg:46.29 Global:45.55
x264 [info]: consecutive B-frames:  3.7% 66.5% 14.1% 15.6%
x264 [info]: mb I  I16..4:  8.7% 50.3% 41.0%
x264 [info]: mb P  I16..4:  2.5%  8.9%  5.4%  P16..4: 41.6% 25.9% 10.3%  0.0%  0.0%    skip: 5.3%
x264 [info]: mb B  I16..4:  0.4%  1.6%  1.2%  B16..8: 40.4% 11.6%  1.9%  direct: 3.4%  skip:39.5%  L0:34.8% L1:53.4% BI:11.8%
x264 [info]: 8x8 transform intra:52.3% inter:41.0%
x264 [info]: coded y,uvDC,uvAC intra: 80.6% 74.2% 51.2% inter: 27.3% 20.8% 14.4%
x264 [info]: i16 v,h,dc,p: 33% 16%  9% 42%
x264 [info]: i8 v,h,dc,ddl,ddr,vr,hd,vl,hu:  9% 11%  7% 10% 14% 13% 14% 10% 13%
x264 [info]: i4 v,h,dc,ddl,ddr,vr,hd,vl,hu: 10% 15%  5% 10% 14% 13% 14%  9% 10%
x264 [info]: i8c dc,h,v,p: 50% 20% 19% 11%
x264 [info]: ref P L0: 80.1% 12.8%  7.1%
x264 [info]: ref B L0: 88.6% 11.4%
x264 [info]: SSIM Mean Y:0.9867465 (18.777db)
x264 [info]: PSNR Mean Y:45.783 U:49.418 V:50.966 Avg:46.705 Global:45.962 kb/s:4194.48



Примечания к релизу
  1. В подготовке релиза использовались iMac, Wacom Intous3 A5.
  2. В подготовке релиза использовались программы Adobe Photoshop CS 6, Adobe InDesign CS 6, HandBrake 0.9.6 (GUI и CLI), XLD, Subler, Apple iTunes, SupRip и др.
  3. Данный iTunes Extras сделан с нуля по образу и подобию меню Blu-Ray диска.









Download
Для скачивания .torrent файлов необходима регистрация
Сайт не распространяет и не хранит электронные версии произведений, а лишь предоставляет доступ к создаваемому пользователями каталогу ссылок на торрент-файлы, которые содержат только списки хеш-сумм
[Профиль]  [ЛС] 

ovsyannikov.ivan

VIP (Заслуженный)

Стаж: 9 лет 5 месяцев

Сообщений: 1921

ovsyannikov.ivan · 09-Окт-12 20:53 (спустя 6 мин.)

Замена рипу: https://rutracker.org/forum/viewtopic.php?t=3964312
[Профиль]  [ЛС] 

Emilio Largo

Стаж: 10 лет 5 месяцев

Сообщений: 45

Emilio Largo · 10-Окт-12 01:34 (спустя 4 часа)

на apple tv доп материалы никак не посмотреть?
[Профиль]  [ЛС] 

ovsyannikov.ivan

VIP (Заслуженный)

Стаж: 9 лет 5 месяцев

Сообщений: 1921

ovsyannikov.ivan · 10-Окт-12 08:08 (спустя 6 часов)

Emilio Largo
Можно на Apple TV первого поколения, либо в iTunes.
[Профиль]  [ЛС] 

alancor

Стаж: 8 лет 4 месяца

Сообщений: 352


alancor · 18-Окт-12 22:42 (спустя 8 дней, ред. 18-Окт-12 22:42)

ovsyannikov.ivan
Релиз свежий, а скрины недоступны на 1080.
Спасибо за замену релиза.
[Профиль]  [ЛС] 

ovsyannikov.ivan

VIP (Заслуженный)

Стаж: 9 лет 5 месяцев

Сообщений: 1921

ovsyannikov.ivan · 19-Окт-12 15:19 (спустя 16 часов)

alancor
Что-то случилось на фастпике. Пропала куча картинок. Не только в этой раздаче.
[Профиль]  [ЛС] 

Cuore in me

Стаж: 6 лет 10 месяцев

Сообщений: 2


Cuore in me · 03-Ноя-12 13:49 (спустя 14 дней)

Спасибо за фильм!
[Профиль]  [ЛС] 

ovsyannikov.ivan

VIP (Заслуженный)

Стаж: 9 лет 5 месяцев

Сообщений: 1921

ovsyannikov.ivan · 04-Ноя-12 23:44 (спустя 1 день 9 часов)

Cuore in me
[Профиль]  [ЛС] 

TanyaA

Стаж: 12 лет 1 месяц

Сообщений: 4


TanyaA · 08-Дек-12 15:41 (спустя 1 месяц 3 дня, ред. 08-Дек-12 15:41)

А почему у меня в айтюнс добавился только Extras. А сами фильмы — нет? И это не только с данной раздачей. Из других раздач тоже не всё добавляется в iTunes. кКа-то выборочно. Пока айтюнс понял только Brave и Lorax.
[Профиль]  [ЛС] 

yv_apple

Moderator

Стаж: 9 лет 1 месяц

Сообщений: 5684

yv_apple · 09-Дек-12 09:21 (спустя 17 часов)

TanyaA
Добавляете вначале фильмы - потом экстрас.
[Профиль]  [ЛС] 

landout

Стаж: 10 лет 7 месяцев

Сообщений: 565

landout · 26-Фев-14 07:27 (спустя 1 год 2 месяца)

ничего так, только рожа главного героя бесит
[Профиль]  [ЛС] 

profile1

Стаж: 5 лет

Сообщений: 747

profile1 · 16-Авг-15 19:29 (спустя 1 год 5 месяцев)

Itunes отказывается добавлять 1080р, что делать?
До качал 720р, его он почему то добавил.
[Профиль]  [ЛС] 

Аркадий Борисов

Стаж: 9 лет 7 месяцев

Сообщений: 38

Аркадий Борисов · 19-Май-19 11:07 (спустя 3 года 9 месяцев)

раздайте, пожалуйста!
[Профиль]  [ЛС] 

Аркадий Борисов

Стаж: 9 лет 7 месяцев

Сообщений: 38

Аркадий Борисов · 28-Май-19 09:47 (спустя 8 дней, ред. 28-Май-19 09:47)

ну, пожалуйста!
ещё чуть-чуть!!! Прошу вас, добрые люди!
[Профиль]  [ЛС] 
 
Ответить
Loading...
Error