История Игрушек: То, что забыто / Toy Story: That Time Forgot (Стив Пурселл / Steve Purcell) [2014, короткометражный анимационный фильм, HDTVRip 720p] DUB + 2xMVO + VO + UKR + Original Eng + sub eng

Страницы:  1

Ответить
Автор
Сообщение

-Azureus-

RG Мультфильмы

Стаж: 10 лет 7 месяцев

Сообщений: 4966

-Azureus- · 06-Дек-14 22:21 (4 года 7 месяцев назад, ред. 05-Июн-15 19:27)

История Игрушек: То, что забыто
Toy Story: That Time Forgot
Год выпуска: 2014
Страна: США
Жанр: короткометражный анимационный фильм
Продолжительность: 00:21:28
Перевод:
Профессиональный (Дублированный) - Disney
Любительский (Многоголосый закадровый) - SkyeFilmTV
Любительский (Многоголосый закадровый) - Pri4udiki
Одноголосый закадровый - Lord32x
русские субтитры: нет
Режиссёр: Стив Пурселл : Steve Purcell
Роли озвучивали: Эмили Хан, Уоллес Шоун, Стив Пурселл, Джонатан Кидд, Дон Риклз, Лори Алан, Тим Аллен, Рон Боттитта, Джоан Кьюсак, Тимоти Далтон
Описание: Вот прошли рождественские праздники, и наши старые друзья попадают в чужой дом, где должны противостоять агрессивным и опасным игрушкам-динозаврам.
релиз:
Качество: HDTVRip 720p
Формат: MKV
Видео кодек: AVC
Аудио кодек: AC3
Видео: 1280x720, 23.976 fps, ~3503 kbps avg, 0.159 bit/pixel
Аудио #1: [RUS] 48 kHz, AC3 Dolby Digital, 2/0 (L,R) ch, ~192 kbps - DUB
Аудио #2: [RUS] 48 kHz, AC3 Dolby Digital, 3/2 (L,C,R,l,r) + LFE ch, ~384 kbps - MVO (SkyeFilmTV)
Аудио #3: [RUS] 48 kHz, AC3 Dolby Digital, 3/2 (L,C,R,l,r) + LFE ch, ~384 kbps - MVO (Pri4udiki)
Аудио #4: [RUS] 48 kHz, AC3 Dolby Digital, 3/2 (L,C,R,l,r) + LFE ch, ~384 kbps - VO (Lord32x)
Аудио #5: [UKR] 48 kHz, AC3 Dolby Digital, 2/0 (L,R) ch, ~192 kbps
Аудио #6: [ENG] 48 kHz, AC3 Dolby Digital, 3/2 (L,C,R,l,r) + LFE ch, ~384 kbps
субтитры: английские
MediaInfo
Общее
Уникальный идентификатор : 210061418707836025524710874082630090025 (0x9E085B8E9F39D4AC83B47D789182BD29)
Полное имя : D:\Im\История Игрушек\Toy Story That Time Forgot.HDTVRip-AVC.mkv
Формат : Matroska
Версия формата : Version 4 / Version 2
Размер файла : 846 Мбайт
Продолжительность : 21 м.
Общий поток : 5511 Кбит/сек
Название фильма : Toy Story: That Time Forgot.2014.HDTVRip 720p -Azureus-
Дата кодирования : UTC 2015-06-05 12:04:53
Программа кодирования : mkvmerge v7.9.0 ('Birds') 32bit
Библиотека кодирования : libebml v1.3.1 + libmatroska v1.4.2
DURATION : 00:21:28.544000000
NUMBER_OF_FRAMES : 40267
NUMBER_OF_BYTES : 30925056
_STATISTICS_WRITING_APP : mkvmerge v7.9.0 ('Birds') 32bit
_STATISTICS_WRITING_DATE_UTC : 2015-06-05 12:04:53
_STATISTICS_TAGS : BPS DURATION NUMBER_OF_FRAMES NUMBER_OF_BYTES
Видео
Идентификатор : 1
Формат : AVC
Формат/Информация : Advanced Video Codec
Профиль формата : [email protected]
Параметр CABAC формата : Да
Параметр ReFrames формата : 5 кадров
Идентификатор кодека : V_MPEG4/ISO/AVC
Продолжительность : 21 м.
Битрейт : 3481 Кбит/сек
Ширина : 1280 пикселей
Высота : 720 пикселей
Соотношение сторон : 16:9
Частота кадров : 23,976 кадра/сек
Цветовое пространство : YUV
Субдискретизация насыщенности : 4:2:0
Битовая глубина : 8 бит
Тип развёртки : Прогрессивная
Бит/(Пиксели*Кадры) : 0.158
Размер потока : 535 Мбайт (63%)
Библиотека кодирования : x264 core 142 r2479 dd79a61
Настройки программы : cabac=1 / ref=5 / deblock=1:0:0 / analyse=0x3:0x113 / me=umh / subme=8 / psy=1 / psy_rd=1.00:0.00 / mixed_ref=1 / me_range=16 / chroma_me=1 / trellis=1 / 8x8dct=1 / cqm=0 / deadzone=21,11 / fast_pskip=1 / chroma_qp_offset=-2 / threads=18 / lookahead_threads=4 / sliced_threads=0 / nr=0 / decimate=1 / interlaced=0 / bluray_compat=0 / constrained_intra=0 / bframes=5 / b_pyramid=2 / b_adapt=2 / b_bias=0 / direct=3 / weightb=1 / open_gop=0 / weightp=2 / keyint=250 / keyint_min=23 / scenecut=40 / intra_refresh=0 / rc_lookahead=50 / rc=crf / mbtree=1 / crf=18.0 / qcomp=0.60 / qpmin=0 / qpmax=69 / qpstep=4 / ip_ratio=1.40 / aq=1:1.00
Язык : English
Default : Да
Forced : Нет
DURATION : 00:21:28.453000000
NUMBER_OF_FRAMES : 30892
NUMBER_OF_BYTES : 577833843
_STATISTICS_WRITING_APP : mkvmerge v7.9.0 ('Birds') 32bit
_STATISTICS_WRITING_DATE_UTC : 2015-06-05 12:04:53
_STATISTICS_TAGS : BPS DURATION NUMBER_OF_FRAMES NUMBER_OF_BYTES
Аудио #1
Идентификатор : 2
Формат : AC-3
Формат/Информация : Audio Coding 3
Расширение режима : CM (complete main)
Идентификатор кодека : A_AC3
Продолжительность : 21 м.
Вид битрейта : Постоянный
Битрейт : 192 Кбит/сек
Каналы : 2 канала
Расположение каналов : Front: L R
Частота : 48,0 КГц
Битовая глубина : 16 бит
Метод сжатия : С потерями
Задержка видео : -83 мс.
Размер потока : 29,5 Мбайт (3%)
Заголовок : DUB
Язык : Russian
Default : Да
Forced : Нет
Аудио #2
Идентификатор : 3
Формат : AC-3
Формат/Информация : Audio Coding 3
Расширение режима : CM (complete main)
Идентификатор кодека : A_AC3
Продолжительность : 21 м.
Вид битрейта : Постоянный
Битрейт : 384 Кбит/сек
Каналы : 6 каналов
Расположение каналов : Front: L C R, Side: L R, LFE
Частота : 48,0 КГц
Битовая глубина : 16 бит
Метод сжатия : С потерями
Задержка видео : -83 мс.
Размер потока : 59,0 Мбайт (7%)
Заголовок : MVO - SkyeFilmTV
Язык : Russian
Default : Нет
Forced : Нет
Аудио #3
Идентификатор : 4
Формат : AC-3
Формат/Информация : Audio Coding 3
Расширение режима : CM (complete main)
Идентификатор кодека : A_AC3
Продолжительность : 21 м.
Вид битрейта : Постоянный
Битрейт : 384 Кбит/сек
Каналы : 6 каналов
Расположение каналов : Front: L C R, Side: L R, LFE
Частота : 48,0 КГц
Битовая глубина : 16 бит
Метод сжатия : С потерями
Задержка видео : -83 мс.
Размер потока : 59,0 Мбайт (7%)
Заголовок : MVO - Pri4udiki
Язык : Russian
Default : Нет
Forced : Нет
Аудио #4
Идентификатор : 5
Формат : AC-3
Формат/Информация : Audio Coding 3
Расширение режима : CM (complete main)
Идентификатор кодека : A_AC3
Продолжительность : 21 м.
Вид битрейта : Постоянный
Битрейт : 384 Кбит/сек
Каналы : 6 каналов
Расположение каналов : Front: L C R, Side: L R, LFE
Частота : 48,0 КГц
Битовая глубина : 16 бит
Метод сжатия : С потерями
Задержка видео : -83 мс.
Размер потока : 59,0 Мбайт (7%)
Заголовок : VO - Lord32x
Язык : Russian
Default : Нет
Forced : Нет
Аудио #5
Идентификатор : 6
Формат : AC-3
Формат/Информация : Audio Coding 3
Расширение режима : CM (complete main)
Идентификатор кодека : A_AC3
Продолжительность : 21 м.
Вид битрейта : Постоянный
Битрейт : 192 Кбит/сек
Каналы : 2 канала
Расположение каналов : Front: L R
Частота : 48,0 КГц
Битовая глубина : 16 бит
Метод сжатия : С потерями
Задержка видео : -83 мс.
Размер потока : 29,5 Мбайт (3%)
Заголовок : UKR
Язык : Ukrainian
Default : Нет
Forced : Нет
Аудио #6
Идентификатор : 7
Формат : AC-3
Формат/Информация : Audio Coding 3
Расширение режима : CM (complete main)
Идентификатор кодека : A_AC3
Продолжительность : 21 м.
Вид битрейта : Постоянный
Битрейт : 384 Кбит/сек
Каналы : 6 каналов
Расположение каналов : Front: L C R, Side: L R, LFE
Частота : 48,0 КГц
Битовая глубина : 16 бит
Метод сжатия : С потерями
Задержка видео : -83 мс.
Размер потока : 59,0 Мбайт (7%)
Заголовок : ENG
Язык : English
Default : Нет
Forced : Нет
Текст
Идентификатор : 8
Формат : UTF-8
Идентификатор кодека : S_TEXT/UTF8
Идентификатор кодека/Информация : UTF-8 Plain Text
Заголовок : Eng Sub
Язык : English
Default : Нет
Forced : Нет
____________________________________________
Стою на раздаче до 5 дней.
Просьба скачавшим как можно дольше не покидать раздачу!
ВСЕМ ПРИЯТНОГО ПРОСМОТРА!
_________________________________________
Download
Для скачивания .torrent файлов необходима регистрация
Сайт не распространяет и не хранит электронные версии произведений, а лишь предоставляет доступ к создаваемому пользователями каталогу ссылок на торрент-файлы, которые содержат только списки хеш-сумм
[Профиль]  [ЛС] 

Chebureks

Стаж: 11 лет 2 месяца

Сообщений: 172


Chebureks · 07-Дек-14 06:14 (спустя 7 часов)

русские субтитры: английские o.O)))
[Профиль]  [ЛС] 

Pavlin67

Стаж: 10 лет

Сообщений: 269

Pavlin67 · 09-Дек-14 00:58 (спустя 1 день 18 часов)

Хороший мультик,мне понравился.Люблю всё,что связано с Toy Story.
Жаль,что до сих пор не сняли сериал.
[Профиль]  [ЛС] 

Pеrfесt_03

Стаж: 5 лет 2 месяца

Сообщений: 1618

Pеrfесt_03 · 15-Дек-14 10:06 (спустя 6 дней)

Шикарно! Надеюсь Skyefilm и Невафильм в ближайшем озвучат его.
[Профиль]  [ЛС] 

ginzan

Стаж: 9 лет 6 месяцев

Сообщений: 5303


ginzan · 02-Янв-15 21:03 (спустя 18 дней)

ИМХО, но только Нева с дубляжом, другого и не жду, надеюсь Нева скоро порадует дубляжом на одном из каналов)
[Профиль]  [ЛС] 

-Azureus-

RG Мультфильмы

Стаж: 10 лет 7 месяцев

Сообщений: 4966

-Azureus- · 27-Фев-15 18:13 (спустя 1 месяц 24 дня)

Злобин Глеб писал(а):
66190809Надеюсь Skyefilm
Уже озвучил.
[Профиль]  [ЛС] 

Pеrfесt_03

Стаж: 5 лет 2 месяца

Сообщений: 1618

Pеrfесt_03 · 28-Фев-15 10:07 (спустя 15 часов)

-Azureus- писал(а):
67016586
Злобин Глеб писал(а):
66190809Надеюсь Skyefilm
Уже озвучил.
Ну что сказать, круто!
[Профиль]  [ЛС] 

РомНик

Стаж: 6 лет

Сообщений: 1089


РомНик · 22-Апр-15 18:43 (спустя 1 месяц 22 дня)

27 апреля на канале Дисней покажут дубляж "Невы". Что ж, будем ждать.
[Профиль]  [ЛС] 

Pеrfесt_03

Стаж: 5 лет 2 месяца

Сообщений: 1618

Pеrfесt_03 · 23-Апр-15 04:19 (спустя 9 часов)

РомНик писал(а):
6759065427 апреля на канале Дисней покажут дубляж "Невы". Что ж, будем ждать.
[Профиль]  [ЛС] 

ginzan

Стаж: 9 лет 6 месяцев

Сообщений: 5303


ginzan · 27-Апр-15 16:55 (спустя 4 дня)

Злобин Глеб
надеюсь писали)
[Профиль]  [ЛС] 

skunz77

Стаж: 9 лет 5 месяцев

Сообщений: 973

skunz77 · 07-Май-15 10:31 (спустя 9 дней)

-Azureus-, дубляж из этой раздачи сюда прикручивать будете?
[Профиль]  [ЛС] 

-Azureus-

RG Мультфильмы

Стаж: 10 лет 7 месяцев

Сообщений: 4966

-Azureus- · 07-Май-15 10:33 (спустя 2 мин.)

skunz77 писал(а):
67721077-Azureus-, дубляж из этой раздачи сюда прикручивать будете?
Я не буду, подожду, может все таки появиться нормальный HD качество.
[Профиль]  [ЛС] 

-Azureus-

RG Мультфильмы

Стаж: 10 лет 7 месяцев

Сообщений: 4966

-Azureus- · 05-Июн-15 16:20 (спустя 29 дней)

Я подумал и решил обновить раздачу.
Добавил Дубляж, две любительских многоголоски и украинскую дорожку.
[Профиль]  [ЛС] 

Pеrfесt_03

Стаж: 5 лет 2 месяца

Сообщений: 1618

Pеrfесt_03 · 05-Июн-15 17:04 (спустя 43 мин.)

Перевод: Профессиональный (Дублированный) - СТС?
[Профиль]  [ЛС] 

skunz77

Стаж: 9 лет 5 месяцев

Сообщений: 973

skunz77 · 05-Июн-15 18:40 (спустя 1 час 35 мин.)

-Azureus- писал(а):
67967806Я подумал и решил обновить раздачу.
Добавил Дубляж, две любительских многоголоски и украинскую дорожку.
Огромное спасибо, уважаемый!
[Профиль]  [ЛС] 

-Azureus-

RG Мультфильмы

Стаж: 10 лет 7 месяцев

Сообщений: 4966

-Azureus- · 05-Июн-15 19:27 (спустя 47 мин.)

Злобин Глеб писал(а):
67968080Перевод: Профессиональный (Дублированный) - СТС?
Забыл исправить, конечно же Disney.
[Профиль]  [ЛС] 
 
Ответить
Loading...
Error