Олимпийские игры. Зал Славы. Пхёнчхан-2018. Eurosport HD [2018, Обзор, IPTV, 1080p, MP4, H.264, RU]

Страницы:  1

Ответить
Автор
Сообщение

Nitta4Ka

Стаж: 5 лет 4 месяца

Сообщений: 236

Nitta4Ka · 26-Дек-18 19:06 (6 месяцев назад)

Олимпийские игры. Зал Славы
Пхёнчхан-2018

Телеканал: Eurosport HD
Год выпуска: 2018
Продолжительность: 00:45:56
Язык комментариев: Русский
Автор рипа/записи: Nitta4Ka
Описание: Обзор всех соревнований на олимпиаде в Пхёнчхане.
Качество: IPTV
Формат видео: MP4
Видео кодек: AVC
Аудио кодек: AAC
Видео: 1920x1080, 25 fps, 4500 kbps
Аудио: 48.0 KHz, 2 ch, 192 kbps
Media Info
General
Complete name : G:\FIS World Cup\Олимпийские игры. Зал Славы. Пхёнчхан-2018.mp4
Format : MPEG-4
Format profile : Base Media
Codec ID : isom (isom/iso2/avc1/mp41)
File size : 1.37 GiB
Duration : 45 min 56 s
Overall bit rate mode : Variable
Overall bit rate : 4 263 kb/s
Writing application : Lavf54.63.104
Video
ID : 1
Format : AVC
Format/Info : Advanced Video Codec
Format profile : [email protected]
Format settings : CABAC / 4 Ref Frames
Format settings, CABAC : Yes
Format settings, RefFrames : 4 frames
Codec ID : avc1
Codec ID/Info : Advanced Video Coding
Duration : 45 min 56 s
Bit rate mode : Variable
Bit rate : 4 068 kb/s
Maximum bit rate : 4 500 kb/s
Width : 1 920 pixels
Height : 1 080 pixels
Display aspect ratio : 16:9
Frame rate mode : Constant
Frame rate : 25.000 FPS
Color space : YUV
Chroma subsampling : 4:2:0
Bit depth : 8 bits
Scan type : Progressive
Bits/(Pixel*Frame) : 0.078
Stream size : 1.31 GiB (95%)
Codec configuration box : avcC
Audio
ID : 2
Format : AAC LC
Format/Info : Advanced Audio Codec Low Complexity
Codec ID : mp4a-40-2
Duration : 45 min 56 s
Duration_LastFrame : -21 ms
Bit rate mode : Constant
Bit rate : 192 kb/s
Channel(s) : 2 channels
Channel layout : L R
Sampling rate : 48.0 kHz
Frame rate : 46.875 FPS (1024 SPF)
Compression mode : Lossy
Stream size : 62.2 MiB (4%)
Language : Russian
Default : Yes
Alternate group : 1
Скриншоты
Download
Для скачивания .torrent файлов необходима регистрация
Сайт не распространяет и не хранит электронные версии произведений, а лишь предоставляет доступ к создаваемому пользователями каталогу ссылок на торрент-файлы, которые содержат только списки хеш-сумм
[Профиль]  [ЛС] 
 
Ответить
Loading...
Error