Благие знамения / Good Omens / Сезон: 1 / Серии: 1-6 из 6 (Дуглас Маккиннон) [2019, Великобритания, США, фэнтези, комедия., WEB-DLRip] MVO (LostFilm) + Original + Sub (Rus, Eng)

Страницы:  1

Ответить
Автор
Сообщение

Бёдвар

Top Bonus 03* 1TB

Стаж: 9 лет 10 месяцев

Сообщений: 683

Бёдвар · 11-Июн-19 20:59 (1 месяц 7 дней назад, ред. 25-Июн-19 22:32)

Благие знамения / Good Omens Год выпуска: 2019
Страна: Великобритания, США
Жанр: фэнтези, комедия
Продолжительность: ~ 00:52:00
Перевод: Профессиональный (многоголосый закадровый) LostFilm
Режиссёр: Дуглас Маккиннон
В ролях: Майкл Шин, Дэвид Теннант, Фрэнсис МакДорманд, Шан Брук, Дэниэл Мейс, Сэм Тейлор Бак, Джон Хэмм, Адриа Архона, Пол Чахиди, Нед Деннехи
Описание: Сериал рассказывает об ангеле и демоне, которые пытаются спасти весь мир от надвигающегося Апокалипсиса. Антихрист родился, и герои понимают, что финальное сражение с ним принесет им немало бед. Они понимают, что проще взять его на свое воспитание еще младенцем и ни в коем случае не допустить его склонение к темной стороне. У ангела и демона оказываются разные взгляды и подходы к воспитанию ребенка, что приносит немало забавных ситуаций.

Качество: WEB-DLRip
Формат: AVI
Видео: XviD, 720x304, 25 fps, ~ 1599 kbps
Аудио 1: 48 kHz, AC3 2 ch, ~192 kbps|LostFilm|
Аудио 2: 48 kHz, AC3 2 ch, ~192 kbps
Субтитры: Русские, английские (SDH)
Реклама: Отсутствует
Предыдущие и альтернативные раздачи
Релиз
Обрезка заставки и синхронизация: kogesan
MediaInfo

Format : AVI
Format/Info : Audio Video Interleave
File size : 733 MiB
Duration : 51mn 15s
Overall bit rate : 1 998 Kbps
Movie name : Благие знамения 1х01: В начале
Director : Бёдвар (WEB-DLRip)
Writing application : VirtualDubModRus 1.5.10.2 (build 2542/release)
Comment : 11.06.2019
Video
ID : 0
Format : MPEG-4 Visual
Format profile : Advanced [email protected]
Format settings, BVOP : 1
Format settings, QPel : No
Format settings, GMC : No warppoints
Format settings, Matrix : Default (MPEG)
Codec ID : XVID
Codec ID/Hint : XviD
Duration : 51mn 15s
Bit rate : 1 600 Kbps
Width : 720 pixels
Height : 304 pixels
Display aspect ratio : 2.35:1
Frame rate : 25.000 fps
Color space : YUV
Chroma subsampling : 4:2:0
Bit depth : 8 bits
Scan type : Progressive
Compression mode : Lossy
Bits/(Pixel*Frame) : 0.292
Stream size : 587 MiB (80%)
Writing library : XviD 67
Audio #1
ID : 1
Format : AC-3
Format/Info : Audio Coding 3
Mode extension : CM (complete main)
Format settings, Endianness : Big
Codec ID : 2000
Duration : 51mn 15s
Bit rate mode : Constant
Bit rate : 192 Kbps
Channel(s) : 2 channels
Channel positions : Front: L R
Sampling rate : 48.0 KHz
Frame rate : 31.250 fps (1536 spf)
Compression mode : Lossy
Stream size : 70.4 MiB (10%)
Alignment : Split accross interleaves
Interleave, duration : 40 ms (1.00 video frame)
Interleave, preload duratio : 500 ms
Audio #2
ID : 2
Format : AC-3
Format/Info : Audio Coding 3
Mode extension : CM (complete main)
Format settings, Endianness : Big
Codec ID : 2000
Duration : 51mn 15s
Bit rate mode : Constant
Bit rate : 192 Kbps
Channel(s) : 2 channels
Channel positions : Front: L R
Sampling rate : 48.0 KHz
Frame rate : 31.250 fps (1536 spf)
Compression mode : Lossy
Stream size : 70.4 MiB (10%)
Alignment : Split accross interleaves
Interleave, duration : 40 ms (1.00 video frame)
Interleave, preload duratio : 500 ms
Скриншоты
Внимание! Раздача ведётся путём добавления новых серий
Внимание! Раздача ведётся путём добавления новых серий; при каждом добавлении создаётся новый торрент. Чтобы начать докачку новой серии,пользователям необходимо сделать следующее:
(1) остановить скачивание,
(2) удалить старый торрент у себя из клиента (старые серии удалять не надо),
(3) скачать новый торрент и запустить его у себя в клиенте вместо старого, при этом указать клиенту путь в старую папку куда и должнопроисходить скачивание новых серий.
Ваш клиент при этом должен произвести хеширование (проверку) старой папки (если не производит сам - помогите ему сделать это), и будет докачивать только те серии
которых у вас ещё нет. Старые серии при этом не удаляются, а продолжают раздаваться!
Eсли вы уже удалили старые серии, то предотвратить повторную закачку старых серий можно, отжав галочку в соответствующих местах при запуске нового торрента.
По возможности, желательно не удалять старые серии как можно дольше чтобы релизёр не столько продолжал раздавать старые серии, а смог сконцентрироваться на новых.
Релиз группы:
Download
Для скачивания .torrent файлов необходима регистрация
Сайт не распространяет и не хранит электронные версии произведений, а лишь предоставляет доступ к создаваемому пользователями каталогу ссылок на торрент-файлы, которые содержат только списки хеш-сумм
[Профиль]  [ЛС] 

Бёдвар

Top Bonus 03* 1TB

Стаж: 9 лет 10 месяцев

Сообщений: 683

Бёдвар · 11-Июн-19 21:05 (спустя 5 мин.)

Просьба ко всем.
При перезалитии раздач на другие трекеры (сайты) , имеющих в названии файлов надпись - RGzsRutracker, обязательно размещать в оформлении этот баннер:

Всем спасибо за понимание. Приятного просмотра.
[Профиль]  [ЛС] 

Celta88

Moderator

Стаж: 10 лет 2 месяца

Сообщений: 7360

Celta88 · 11-Июн-19 21:16 (спустя 11 мин.)



проверено
[Профиль]  [ЛС] 

bot · 11-Июн-19 21:22 (спустя 5 мин.)

Тема была перенесена из форума Зарубежные сериалы в форум Новинки и сериалы в стадии показа
Wentworth_Miller
 

mylah

Стаж: 13 лет

Сообщений: 67

mylah · 22-Июн-19 15:36 (спустя 10 дней)

не подскажете, когда можно ожидать оставшиеся серии? спасибо.
[Профиль]  [ЛС] 

bot · 25-Июн-19 22:47 (спустя 3 дня)

Тема была перенесена из форума Новинки и сериалы в стадии показа в форум Сериалы совместного производства нескольких стран
Wentworth_Miller
 

dwell

Стаж: 12 лет 4 месяца

Сообщений: 1034


dwell · 02-Июл-19 12:50 (спустя 9 дней)

спасибо за оригинал и субтитры!
[Профиль]  [ЛС] 
 
Ответить
Loading...
Error